Loading...
Error

Кунг-фу Панда 2 / Kung Fu Panda 2 (Дженнифер Ю) [2011, мультфильм, боевик, комедия, приключения, семейный, HDRip 720p ] Трейлер в переводе Гоблина

Ответить на тему
 
Автор Сообщение

Alexpetrov

Стаж: 9 лет

Сообщений: 1055

Россия

Режим только чтение: НЕТ

post 18-Мар-2011 16:13

Quote

Кунг-фу Панда 2 / Kung Fu Panda 2 (Трейлер)

Тип раздаваемого материала: трейлер
Год выпуска: 2011
Страна: США, DreamWorks Animation
Продолжительность: 00:02:13
Жанр: мультфильм, боевик, комедия, приключения, семейный
Перевод: Профессиональный (одноголосый закадровый) (Гоблин)
Русские субтитры: нет
Режиссер: Дженнифер Ю
Роли озвучивают:
Джек Блэк, Дэвид Кросс, Дастин Хоффман, Джеймс Хонг, Анджелина Джоли, Люси Лиу, Сет Роген
Описание:
Панда По, величайший в мире фанат кунг-Фу, продолжает свое путешествие, как и гласит древнее пророчество, осваивая искусство кунг-Фу.
Качество: HDRip 720p
Формат: AVI
Видео кодек: H.264
Аудио кодек: MP3
Видео: MPEG4 Video (H264) 1280x544 23.98fps 6657kbps
Аудио: MPEG Audio Layer 3 44100Hz stereo 95kbps rus
Аудио: MPEG Audio Layer 3 48000Hz stereo 192kbps eng


General
Complete name : D:\Раздачи\Kung Fu Panda 2_trlr_rus_eng_720p_(Goblin).avi
Format : AVI
Format/Info : Audio Video Interleave
File size : 111 MiB
Duration : 2mn 13s
Overall bit rate : 6 961 Kbps
Director : created.with.SUPER(C).v2010.bld.42
Writing application : VirtualDubModRus 1.5.10.2 (build 2542/release)
Writing library : VirtualDubMod build 2542/release

Video
ID : 0
Format : AVC
Format/Info : Advanced Video Codec
Format profile : Baseline@L1.3
Format settings, CABAC : No
Format settings, ReFrames : 1 frame
Codec ID : H264
Duration : 2mn 13s
Bit rate : 6 658 Kbps
Width : 1 280 pixels
Height : 544 pixels
Display aspect ratio : 2.35:1
Frame rate : 23.976 fps
Resolution : 8 bits
Colorimetry : 4:2:0
Scan type : Progressive
Bits/(Pixel*Frame) : 0.399
Stream size : 106 MiB (96%)
Writing library : SUPER(C) by eRightSoft

Audio #1
ID : 1
Format : MPEG Audio
Format version : Version 1
Format profile : Layer 3
Format_Settings_Mode : Joint stereo
Format_Settings_ModeExtension : MS Stereo
Codec ID : 55
Codec ID/Hint : MP3
Duration : 2mn 13s
Bit rate mode : Constant
Bit rate : 96.0 Kbps
Channel(s) : 2 channels
Sampling rate : 44.1 KHz
Stream size : 1.52 MiB (1%)
Alignment : Split accross interleaves
Interleave, duration : 42 ms (1.01 video frame)
Interleave, preload duration : 500 ms

Audio #2
ID : 2
Format : MPEG Audio
Format version : Version 1
Format profile : Layer 3
Codec ID : 55
Codec ID/Hint : MP3
Duration : 2mn 13s
Bit rate mode : Constant
Bit rate : 192 Kbps
Channel(s) : 2 channels
Sampling rate : 48.0 KHz
Stream size : 3.05 MiB (3%)
Alignment : Split accross interleaves
Interleave, duration : 42 ms (1.00 video frame)
Interleave, preload duration : 500 ms
Writing library : LAME3.97

Вне форума Profile PM
Показать сообщения:    
Ответить на тему

Текущее время: 10-Дек 11:52

Часовой пояс: GMT + 3



Вы не можете начинать темы
Вы не можете отвечать на сообщения
Вы не можете редактировать свои сообщения
Вы не можете удалять свои сообщения
Вы не можете голосовать в опросах
Вы не можете прикреплять файлы к сообщениям
Вы не можете скачивать файлы
Рейтинг торрент трекеров - UpTracker.ru Анализ веб сайта Яндекс.Метрика
службы мониторинга серверов