Loading...
Error

О чём ещё говорят мужчины (Дмитрий Дьяченко) [2011 г., комедия, DVD5] |Сжатый лицензии|

Ответить на тему
 
Автор Сообщение

Theseus

Стаж: 9 лет 7 месяцев

Сообщений: 4834

Режим только чтение: НЕТ

post 30-Янв-2012 20:17

Quote


О чём ещё говорят мужчины

Год выпуска: 2011
Жанр: комедия
Продолжительность: 01:34:31
Выпущено: Россия
Режиссер: Дмитрий Дьяченко
В ролях: Леонид Барац, Ростислав Хаит, Александр Демидов, Камиль Ларин, Алёна Бабенко, Екатерина Вилкова, Владимир Меньшов, Максим Виторган, Елена Подкаминская, Константин Чепурин...
Описание: Леша, Слава и Камиль в трудную минуту приходят на помощь своему другу Саше. Накануне Нового года он умудрился вступить в конфликт с женой сотрудника силовых структур, и теперь четверо друзей заперлись в офисе рекламного агентства, которым руководит Саша, пытаясь придумать выход из сложившейся ситуации и коротая время в мужских разговорах.

Качество: DVD5 (Исходник > ТУТ <)
Формат: DVDVideo
Видео кодек: Mpeg 2
Аудио кодек: AC3
Видео: MPEG2Video/ PAL 16:9 / 720x576 / 6357 kbps / 25.000 fps
Аудио: 48 kHz, AC3 Dolby Digital, 3/2 (L,C,R,l,r) + LFE ch, 448 kbps

Общее
Полное имя : N:\О чем еще говорят мужчины_DVD5\VIDEO_TS\VTS_02_1.VOB
Формат : MPEG-PS
Размер файла : 1024 Мбайт
Продолжительность : 20 м.
Режим общего битрейта : Переменный
Общий поток : 6943 Кбит/сек
Видео
Идентификатор : 224 (0xE0)
Формат : MPEG Video
Версия формата : Version 2
Профиль формата : Main@Main
Параметр BVOP формата : Да
Параметр матрицы формата : Выборочная
Продолжительность : 20 м.
Вид битрейта : Переменный
Битрейт : 6357 Кбит/сек
Максимальный битрейт : 8000 Кбит/сек
Ширина : 720 пикселей
Высота : 576 пикселей
Соотношение сторон : 16:9
Частота кадров : 25,000 кадров/сек
Стандарт вещания : PAL
Цветовое пространство : YUV
Субдискретизация насыщенности : 4:2:0
Битовая глубина : 8 бит
Тип развёртки : Прогрессивная
Метод сжатия : С потерями
Бит/(Пиксели*Кадры) : 0.613
Размер потока : 938 Мбайт (92%)
Аудио
Идентификатор : 189 (0xBD)-129 (0x81)
Формат : AC-3
Формат/Информация : Audio Coding 3
Расширение режима : CM (complete main)
Режим смешивания : DVD-Video
Продолжительность : 20 м.
Вид битрейта : Постоянный
Битрейт : 448 Кбит/сек
Каналы : 6 каналов
Расположение каналов : Front: L C R, Side: L R, LFE
Частота : 48,0 КГц
Битовая глубина : 16 бит
Метод сжатия : С потерями
Размер потока : 66,1 Мбайт (6%)
Меню


Данную раздачу можно скачивать при отсутствии сидирующих на трекере.
Скрыт Profile PM
Показать сообщения:    
Ответить на тему

Текущее время: 22-Апр 19:42

Часовой пояс: GMT + 3



Вы не можете начинать темы
Вы не можете отвечать на сообщения
Вы не можете редактировать свои сообщения
Вы не можете удалять свои сообщения
Вы не можете голосовать в опросах
Вы не можете прикреплять файлы к сообщениям
Вы не можете скачивать файлы
Рейтинг торрент трекеров - UpTracker.ru Анализ веб сайта Яндекс.Метрика
службы мониторинга серверов