Loading...
Error

Сборка игрового компьютера от А до Я. Видеокурс [Алексей Меркулов] (2015, PCRec)

Ответить на тему
 
Автор Сообщение

3rikovi4

Стаж: 6 лет 11 месяцев

Сообщений: 4911

Молдавия

Режим только чтение: НЕТ

post 07-Сен-2015 18:08

Quote




Сборка игрового компьютера от А до Я. Видеокурс





Год выпуска: 2015

Страна: Россия

Тематика: Комп. железо, сборка компьютера

Тип материала: Обучающее видео

Продолжительность: 02:30:48

Автор: Алексей Меркулов

Язык: Русский

Описание:

Видеокурс предназначен для людей, решивших первый раз собрать компьютер. В уроках, автор подробно в деталях рассказывает и показывает весь процесс, и и тонкости сборки ПК.
Как самостоятельно собрать игровой компьютер своими руками? Как установить оперативную память, видеокарту, жесткий диск? Как подключить материнскую плату к корпусу? Все это Вы узнаете посмотрев данные видеоуроки Вы сможете, без посторонней помощи, правильно и не дорого выбрать комплектующие и собрать (для себя или на заказ) игровой компьютер.
Все конфигурации приведенные в видеокурсе составлены на основании личного опыта автора по сборке игровых компьютеров и изучения информации сторонних ресурсов, так же, автор просит учесть, что целевая аудитория, на которую рассчитаны эти сборки - широкий круг людей, стремящихся получить максимальную игровою производительность от своего ПК, затратив при этом минимум средств, и не увлекающихся при этом "разгоном" компьютерного железа.
• Обзор и проверка компонентов
• Тестовый стенд и тестирование
• Сборка системника
• Примеры оптимальных конфигураций ПК (от начального до супер производительного уровня)


Качество: PCRec
Формат: MP4
Видео кодек: AVC
Аудио кодек: AAC-LC
Видео: avc1, 1920x1080, ~3197 Kbps, 29.970 fps
Аудио: AAC-LC, 44,1 KHz, 2 ch stereo, 126 Kbps


Код:
Общее
Полное имя : D:\Мастер-Класс\Сборка игрового компьютера от А до Я (2015)\от А до Я. Часть 1 Обзор и проверка компонентов..mp4
Формат : MPEG-4
Профиль формата : Base Media
Идентификатор кодека : isom
Размер файла : 687 Мбайт
Продолжительность : 28 м.
Общий поток : 3330 Кбит/сек
Программа кодирования : Lavf55.22.100

Видео
Идентификатор : 1
Формат : AVC
Формат/Информация : Advanced Video Codec
Профиль формата : High@L4
Параметр CABAC формата : Да
Параметр ReFrames формата : 2 кадра
Идентификатор кодека : avc1
Идентификатор кодека/Информация : Advanced Video Coding
Продолжительность : 28 м.
Битрейт : 3197 Кбит/сек
Ширина : 1920 пикселей
Высота : 1080 пикселей
Соотношение сторон : 16:9
Режим частоты кадров : Постоянный
Частота кадров : 29,970 кадров/сек
Цветовое пространство : YUV
Субдискретизация насыщенности : 4:2:0
Битовая глубина : 8 бит
Тип развёртки : Прогрессивная
Бит/(Пиксели*Кадры) : 0.051
Размер потока : 659 Мбайт (96%)

Аудио
Идентификатор : 2
Формат : AAC
Формат/Информация : Advanced Audio Codec
Профиль формата : LC
Идентификатор кодека : 40
Продолжительность : 28 м.
Вид битрейта : Постоянный
Битрейт : 126 Кбит/сек
Каналы : 2 канала
Расположение каналов : Front: L R
Частота : 44,1 КГц
Метод сжатия : С потерями
Размер потока : 25,9 Мбайт (4%)
Вне форума Profile PM
Показать сообщения:    
Ответить на тему

Текущее время: 30-Окт 20:24

Часовой пояс: GMT + 3



Вы не можете начинать темы
Вы не можете отвечать на сообщения
Вы не можете редактировать свои сообщения
Вы не можете удалять свои сообщения
Вы не можете голосовать в опросах
Вы не можете прикреплять файлы к сообщениям
Вы не можете скачивать файлы
Рейтинг торрент трекеров - UpTracker.ru Яндекс.Метрика
службы мониторинга серверов