Loading...
Error

Я иду искать / Ready or Not (Мэттью Беттинелли / Matthew Bettinelli, Тайлер Джиллетт / Tyler Gillett) [2019, триллер, комедия, ужасы, BDRip] Dub

Ответить на тему
 
Автор Сообщение

Neo

Стаж: 5 лет 7 месяцев

Сообщений: 136

Режим только чтение: НЕТ

post 02-Дек-2019 19:45

Quote

Я иду искать / Ready or Not

Год выхода: 2019
Страна: США, Канада
Жанр: триллер, комедия, ужасы
Продолжительность: 01:35:22
Перевод: Профессиональный (полное дублирование)
Субтитры: Русские (форсированные) (внешние .srt*)

Режиссер:
Мэттью Беттинелли / Matthew Bettinelli, Тайлер Джиллетт / Tyler Gillett

В ролях:
Самара Уивинг, Адам Броди, Марк О’Брайэн, Генри Черни, Энди МакДауэлл, Мелани Скрофано, Кристиан Бруун, Никки Гуаданьи, Элиз Левек, Джон Ралстон

О фильме:
Молодая невеста — теперь часть семьи своего новоиспеченного мужа, богатого, но эксцентричного рода, чтящего вековые традиции. Кто бы мог подумать, что первая брачная ночь превратится в смертельную игру с новообретёнными родственниками, в которой девушке нужно будет очень постараться, чтобы дожить до рассвета.



Сэмпл

Качество: BDRip
Формат: AVI

Видео: 720x304 (2.37:1), 23.976 fps, XviD build 73 ~1792 kbps avg, 0.34 bit/pixel
Аудио: 48 kHz, AC3 Dolby Digital, 3/2 (L,C,R,l,r) + LFE ch, ~384 kbps avg - iTunes

Код:

Полное имя                               : D:\Ya_idu_iskat`_2019_BDRip_iT_by_Dalemake.avi
Формат                                   : AVI
Формат/Информация                        : Audio Video Interleave
Размер файла                             : 1,46 Гбайт
Продолжительность                        : 1 ч. 35 м.
Общий поток                              : 2186 Кбит/сек
Программа кодирования                    : VirtualDubMod 1.5.10.3
Библиотека кодирования                   : VirtualDubMod build 2550/release

Видео
Идентификатор                            : 0
Формат                                   : MPEG-4 Visual
Профиль формата                          : Advanced Simple@L5
Настройки формата                        : BVOP1 / Custom Matrix
Параметр BVOP формата                    : 1
Параметр QPel формата                    : Нет
Параметр GMC формата                     : Без точки перехода
Параметр матрицы формата                 : Выборочная
Идентификатор кодека                     : XVID
Идентификатор кодека/Подсказка           : XviD
Продолжительность                        : 1 ч. 35 м.
Битрейт                                  : 1793 Кбит/сек
Ширина                                   : 720 пикселей
Высота                                   : 304 пикселя
Соотношение сторон                       : 2,35:1
Частота кадров                           : 23,976 (24000/1001) кадра/сек
Цветовое пространство                    : YUV
Субдискретизация насыщенности            : 4:2:0
Битовая глубина                          : 8 бит
Тип развёртки                            : Прогрессивная
Метод сжатия                             : С потерями
Бит/(Пиксели*Кадры)                      : 0.342
Размер потока                            : 1,19 Гбайт (82%)
Библиотека кодирования                   : XviD 73

Аудио
Идентификатор                            : 1
Формат                                   : AC-3
Формат/Информация                        : Audio Coding 3
Коммерческое название                    : Dolby Digital
Идентификатор кодека                     : 2000
Продолжительность                        : 1 ч. 35 м.
Вид битрейта                             : Постоянный
Битрейт                                  : 384 Кбит/сек
Каналы                                   : 6 каналов
ChannelLayout                            : L R C LFE Ls Rs
Частота                                  : 48,0 КГц
Частота кадров                           : 31,250 кадров/сек (1536 SPF)
Битовая глубина                          : 16 бит
Метод сжатия                             : С потерями
Размер потока                            : 262 Мбайт (18%)
Выравнивание                             : Разделение по промежуткам
Продолжительность промежутка             : 42  мс. (1,00 видеокадр)
Время предзагрузки промежутка            : 500  мс.
ServiceKind/String                       : Complete Main

Вне форума Profile PM
Показать сообщения:    
Ответить на тему

Текущее время: 31-Мар 09:46

Часовой пояс: GMT + 3



Вы не можете начинать темы
Вы не можете отвечать на сообщения
Вы не можете редактировать свои сообщения
Вы не можете удалять свои сообщения
Вы не можете голосовать в опросах
Вы не можете прикреплять файлы к сообщениям
Вы не можете скачивать файлы
Рейтинг торрент трекеров - UpTracker.ru Анализ веб сайта Яндекс.Метрика
службы мониторинга серверов