Loading...
Error

Человек-паук / Spider-Man: The Animated Series (season 1-5) (1994-1998) (Боб Ричардсон) [1994-1998 гг., Фантастика, Анимация, Экшн, Приключения, DVDRip]

Ответить на тему
 
Автор Сообщение

GHOST RIDER

Стаж: 8 лет 5 месяцев

Сообщений: 126

Режим только чтение: НЕТ

post 03-Окт-2010 01:36

Quote

Человек-паук/ Spider-Man: The Animated Series (season 1-5) (1994-1998)

Год выпуска: 1994-1998
Страна: США
Жанр: Фантастика, Анимация, Экшн, Приключения
Продолжительность: 65 серий x 00:20:00
Перевод: Дублированный

Режиссер: Боб Ричардсон
Продюсер: Стэн Ли, Ави Арад, Джон Коули
Сценарий: Mark Hoffmeier, Джон Семпер, Megeen McLaughlin

В ролях: Кристофер Дэниэл Барнс, Роско Ли Браун, Сара Бэллэнтайн, Родни Солсберри, Дженнифер Хейл, Эдвард Эснер, Гари Имхофф, Линда Гэри, Максвелл Колфилд, Джозеф Кампанелла

Описание: Случайный укус радиоактивного паука на научной выставке даровал нескладному студенту Питеру Паркеру невероятные паучьи способности. Когда грабитель убил его любимого дядю Бена, Питер решает использовать свои удивительные силы, чтобы защищать людей. Он навсегда запомнил слова своего дяди: «Чем больше сила, тем больше и ответственность!». Он становится Человеком-Пауком, бесстрашным героем в маске.

Качество: DVDRip
Продолжительность: 65 серий x 00:20:00
Качество видео: DVDRip
Перевод: Профессиональный (дублированный) - серии 1-30, Профессиональный (многоголосый, закадровый) - серии 31-65
Субтитры: нет

Видео: AVC/H.264, 720x544, ~2940 kbps, 25 fps
Аудио 1: Дубляж НТВ: AC3, 48000 Hz, 2/0 (L,R) ch, 192 kbps
Аудио 2: Многоголосый закадровый: AC3, 48000 Hz, 2/0 (L,R) ch, 192 kbps
Аудио 3: Оригинал: AC3, 48000 Hz, 2/0 (L,R) ch, 192 kbps

Сезон 1 (1994-1995)
1 - Ночная Ящерица / Night of the Lizard
2 - Жало Скорпиона / The Sting of the Scorpion
3 - Охотники за пауком / The Spider Slayer
4 - Возвращение Охотников за Пауком / Return of the Spider Slayers
5 - Доктор Осминог: Вооружён и Опасен / Doctor Octopus: Armed and Dangerous
6 - Грозный Мистерио / The Menace of Mysterio
7 - Чужой костюм, Часть 1 / The Alien Costume, Part 1
8 - Чужой костюм, Часть 2 / The Alien Costume, Part 2
9 - Чужой костюм, Часть 3 / The Alien Costume, Part 3
10 - Кравен-Охотник / Kraven the Hunter
11 - Домовой, Часть 1 / The Hobgoblin, Part 1
12 - Домовой, Часть 2 / The Hobgoblin, Part 2
13 - День Хамелеона / Day of the Chameleon

Сезон 2 - Неогенный кошмар (1995-1996)
1 - Коварная шестёрка / The Insidious Six
2 - Сражение с коварной шестёркой / Battle of the Insidious Six
3 - Гидромен / Hydro-Man
4 - Страсти по мутантам / The Mutant Agenda
5 - Месть мутантов / Mutants' Revenge
6 - Морбиус / Morbius
7 - Появление Карателя / Enter the Punisher
8 - Поединок охотников / Duel of the Hunters
9 - Охотник за вампирами / Blade, the Vampire Hunter
10 - Бессмертный вампир / The Immortal Vampire
11 - Плита времени / Tablet of Time
12 - Неумолимое время / Ravages of Time
13 - Крик Стервятника / Shriek of the Vulture
14 - Последний неогенный кошмар / The Final Nightmare

Сезон 3 - Грехи отцов (1996)
1 - Доктор Стрэндж / Doctor Strange
2 - Загадай желание / Make a Wish
3 - Атака Окторобота / Attack of the Octobot
4 - Те же и Зелёный Гоблин / Enter the Green Goblin
5 - Неуловимый скейтбордист / Rocket Racer
6 - Подстава / Framed
7 - Без страха и упрёка / The Man Without Fear
8 - Идеальный убийца / The Ultimate Slayer
9 - Могильщик / Tombstone
10 - Возвращение Смертоносца / Venom Returns
11 - Потрошитель / Carnage
12 - Пятно / The Spot
13 - Гоблин объявляет войну! / Goblin War!
14 - Поворотный момент / Turning Point

Сезон 4 - Друзья в опасности (1997)
1 - Виновен / Guilty
2 - Кот / The Cat
3 - Чёрная Кошка / The Black Cat
4 - Возвращение Кравена / The Return of Kraven
5 - Напарники / Partners
6 - Пробуждение вампира / The Awakening
7 - Королева Вампиров / The Vampire Queen
8 - Возвращение Зелёного Гоблина / The Return of the Green Goblin
9 - Наваждение Мэри Джейн Уотсон / The Haunting of Mary Jane Watson
10 - Король ящеров / The Lizard King
11 - Хищник / The Prowler

Сезон 5 - Секретные войны (1997-1998)
1 - Свадьба / The Wedding
2 - Шесть забытых воинов, Глава 1 / Six Forgotten Warriors, Chapter 1
3 - Шесть забытых воинов, Глава 2: Невостребованное наследие / Six Forgotten Warriors, Chapter 2: Unclaimed Legacy
4 - Шесть забытых воинов, Глава 3: Секреты Шестёрки / Six Forgotten Warriors, Chapter 3: Secrets of the Six
5 - Шесть забытых воинов, Глава 4: Герои снова в бою / Six Forgotten Warriors, Chapter 4: The Six Fight Again
6 - Шесть забытых воинов, Глава 5: Цена героизма / Six Forgotten Warriors, Chapter 5: The Price of Heroism
7 - Возвращение Гидромена, Часть 1 / The Return of Hydro-Man, Part 1
8 - Возвращение Гидромена, Часть 2 / The Return of Hydro-Man, Part 2
9 - Секретные войны, Глава 1: Прибытие / Secret Wars, Chapter 1: Arrival
10 - Секретные войны, Глава 2: Череп бросает вызов / Secret Wars, Chapter 2: The Gauntlet of the Red Skull
11 - Секретные войны, Глава 3: Дум / Secret Wars, Chapter 3: Doom
12 - Паучьи войны, Глава 1: Как я ненавижу клонов /Spider Wars, Chapter 1: I Really, Really Hate Clones
13 - Паучьи войны, Глава 2: Прощай, Человек-Паук / Spider Wars, Chapter 2: Farewell, Spider-Man

Код:

D:\Films\Spider-Man_The animated series\Season 1\s1e01_Night of the Lizard.mkv
   General
      Unique ID : 179374719788579333787066164578629867421 (0x86F2507D380CBF869F5B6BA69F7E579D)
      Complete name : D:\Films\Spider-Man_The animated series\Season 1\s1e01_Night of the Lizard.mkv
      Format : Matroska
      Format version : Version 2
      File size : 459 MiB
      Duration : 19mn 16s
      Overall bit rate : 3 326 Kbps
      Encoded date : UTC 2012-07-07 16:06:35
      Writing application : mkvmerge v5.3.0 ('I could have danced') built on Feb  9 2012 10:38:07
      Writing library : libebml v1.2.3 + libmatroska v1.3.0
   Video #1
      ID : 1
      Format : AVC
      Format/Info : Advanced Video Codec
      Format profile : High@L4.1
      Format settings, CABAC : Yes
      Format settings, ReFrames : 9 frames
      Codec ID : V_MPEG4/ISO/AVC
      Duration : 19mn 16s
      Bit rate : 2 940 Kbps
      Width : 720 pixels
      Height : 544 pixels
      Display aspect ratio : 4:3
      Original display aspect ratio : 4:3
      Frame rate : 25.000 fps
      Color space : YUV
      Chroma subsampling : 4:2:0
      Bit depth : 8 bits
      Scan type : Progressive
      Bits/(Pixel*Frame) : 0.300
      Stream size : 397 MiB (86%)
      Writing library : x264 core 125 r2200 999b753
      Encoding settings : cabac=1 / ref=9 / deblock=1:0:0 / analyse=0x3:0x133 / me=umh / subme=10 / psy=1 / psy_rd=1.00:0.00 / mixed_ref=1 / me_range=16 / chroma_me=1 / trellis=2 / 8x8dct=1 / cqm=0 / deadzone=21,11 / fast_pskip=0 / chroma_qp_offset=-2 / threads=6 / lookahead_threads=1 / sliced_threads=0 / nr=0 / decimate=1 / interlaced=0 / bluray_compat=0 / constrained_intra=0 / bframes=3 / b_pyramid=2 / b_adapt=2 / b_bias=0 / direct=3 / weightb=1 / open_gop=0 / weightp=2 / keyint=250 / keyint_min=25 / scenecut=40 / intra_refresh=0 / rc_lookahead=60 / rc=2pass / mbtree=1 / bitrate=2940 / ratetol=1.0 / qcomp=0.60 / qpmin=0 / qpmax=69 / qpstep=4 / cplxblur=20.0 / qblur=0.5 / ip_ratio=1.40 / aq=1:1.00
      Language : English
      Default : Yes
      Forced : No
   Audio #2
      ID : 2
      Format : AC-3
      Format/Info : Audio Coding 3
      Mode extension : CM (complete main)
      Format settings, Endianness : Big
      Codec ID : A_AC3
      Duration : 19mn 16s
      Bit rate mode : Constant
      Bit rate : 192 Kbps
      Channel(s) : 2 channels
      Channel positions : Front: L R
      Sampling rate : 48.0 KHz
      Bit depth : 16 bits
      Compression mode : Lossy
      Stream size : 26.5 MiB (6%)
      Title : Дубляж НТВ
      Language : Russian
      Default : Yes
      Forced : No
   Audio #3
      ID : 3
      Format : AC-3
      Format/Info : Audio Coding 3
      Mode extension : CM (complete main)
      Format settings, Endianness : Big
      Codec ID : A_AC3
      Duration : 19mn 16s
      Bit rate mode : Constant
      Bit rate : 192 Kbps
      Channel(s) : 2 channels
      Channel positions : Front: L R
      Sampling rate : 48.0 KHz
      Bit depth : 16 bits
      Compression mode : Lossy
      Stream size : 26.5 MiB (6%)
      Title : Оригинал
      Language : English
      Default : No
      Forced : No












_________________
Спокойствие крепче стали


Последний раз редактировалось: GHOST RIDER (11-02-2018 14:38), всего редактировалось 23 раз(а)
Скрыт Profile PM

Lioness

Стаж: 9 лет 2 месяца

Сообщений: 1631

Эквадор

Режим только чтение: НЕТ

post 04-Окт-2010 15:29 (спустя 1 день 13 часов)

Quote

http://torrent.rus.ec/viewtopic.php?t=246

_________________
РАЗДАЧИ НЕ СИДИРУЮ.
Вне форума Profile PM

gluh2

Стаж: 7 лет 7 месяцев

Сообщений: 1

Россия

Режим только чтение: НЕТ

post 13-Апр-2011 19:33 (спустя 6 месяцев)

Quote

Alexander Krueger писал(а):

Человек-паук, 1-5 сезоны / Spider-Man: The Animated Series (season 1-5) (1994-1998) (Боб Ричардсон) [1994-1998 гг., Фантастика, Анимация, Экшн, Приключения, TVRip]
Вне форума Profile PM

GHOST RIDER

Стаж: 8 лет 5 месяцев

Сообщений: 126

Режим только чтение: НЕТ

post 10-Фев-2018 18:57 (спустя 6 лет 9 месяцев)

Quote

Раздача обновлена TVRip заменен на DVDRip.

_________________
Спокойствие крепче стали
Скрыт Profile PM
Показать сообщения:    
Ответить на тему

Текущее время: 17-Ноя 16:31

Часовой пояс: GMT + 3



Вы не можете начинать темы
Вы не можете отвечать на сообщения
Вы не можете редактировать свои сообщения
Вы не можете удалять свои сообщения
Вы не можете голосовать в опросах
Вы не можете прикреплять файлы к сообщениям
Вы не можете скачивать файлы
Рейтинг торрент трекеров - UpTracker.ru Анализ веб сайта Яндекс.Метрика
службы мониторинга серверов