Loading...
Error

Drake, Eminem, Lil Wayne - Drop the World, Forever (52nd Annual Grammy Awards)[2010 г., Hip-Hop, HDTVRip]

Ответить на тему
 
Автор Сообщение

AngryWhiteGuy

Стаж: 11 лет

Сообщений: 474

Откуда: База ВВС США «Андерсен»™

Украина

Режим только чтение: НЕТ

post 13-Дек-2010 18:47

Quote

Drake, Eminem, Lil Wayne - Drop the World, Forever (52nd Annual Grammy Awards)

Год выпуска: 2010
Страна: USA
Жанр: Hip-Hop
Продолжительность: 06:59
Перевод: Не требуется

В ролях: Drake, Eminem, Lil Wayne

Описание: Выступление на 52nd Annual Grammy Awards 2010 без цензуры.

Качество: HDTVRip
Формат: ts
Видео кодек: MPEG2
Аудио кодек: MP3
Видео: MPEG2 Video 1920x1080 29.97fps 17067kbps
Аудио: MPEG Audio Layer 3 44100Hz stereo 320kbps
General
ID : 1
Complete name : H:\Видео\Drake, Eminem, Lil Wayne & Travis Barker - Drop the World - Forever (The 52nd Annual Grammy Awards 2010) 1080i HDTV Stereo MPEG2-CtrlHD.ts
Format : MPEG-TS
File size : 885 MiB
Duration : 6mn 59s
Overall bit rate : 17.7 Mbps
Maximum Overall bit rate : 35.5 Mbps

Video
ID : 4113 (0x1011)
Menu ID : 1 (0x1)
Format : MPEG Video
Format version : Version 2
Format profile : Main High
Format settings, BVOP : Yes
Format settings, Matrix : Default
Format settings, GOP : M=3, N=15
Codec ID : 2
Duration : 6mn 59s
Bit rate mode : Variable
Bit rate : 17.1 Mbps
Width : 1 920 pixels
Height : 1 080 pixels
Display aspect ratio : 16:9
Frame rate : 29.970 fps
Standard : Component
Color space : YUV
Chroma subsampling : 4:2:0
Bit depth : 8 bits
Scan type : Interlaced
Scan order : Top Field First
Bits/(Pixel*Frame) : 0.275
Stream size : 825 MiB (93%)

Audio
ID : 4352 (0x1100)
Menu ID : 1 (0x1)
Format : MPEG Audio
Format version : Version 1
Format profile : Layer 3
Mode : Joint stereo
Codec ID : 4
Duration : 6mn 59s
Bit rate mode : Constant
Bit rate : 320 Kbps
Channel(s) : 2 channels
Sampling rate : 44.1 KHz
Video delay : -67ms
Stream size : 16.0 MiB (2%)

Text
ID : 4113 (0x1011)608-1
Menu ID : 1 (0x1)
Format : EIA-608
Muxing mode : A/53 / DTVCC Transport
Muxing mode, more info : Muxed in Video #1
Duration : 6mn 59s
Stream size : 0.00 Byte (0%)

_________________
[img]
Вне форума Profile PM
Показать сообщения:    
Ответить на тему

Текущее время: 22-Янв 23:31

Часовой пояс: GMT + 3



Вы не можете начинать темы
Вы не можете отвечать на сообщения
Вы не можете редактировать свои сообщения
Вы не можете удалять свои сообщения
Вы не можете голосовать в опросах
Вы не можете прикреплять файлы к сообщениям
Вы не можете скачивать файлы
Рейтинг торрент трекеров - UpTracker.ru Яндекс.Метрика
службы мониторинга серверов