Loading...
Error

Пёс (Серии 1—20 из 20) (Николай Каптан, Игорь Забара) [2015/16, криминал, HDTVRip]

Ответить на тему
 
Автор Сообщение

O.S.A.

Стаж: 2 года 9 месяцев

Сообщений: 190

СССР

Режим только чтение: НЕТ

post 25-Май-2016 18:58

Quote



Пёс


  • Год выпуска: 2015/16
  • Страна: Украина / «PRO-TV»
  • Жанр: криминал
  • Продолжительность: 20 х ~00:50:00
  • Язык: Русский

  • Режиссёр: Николай Каптан, Игорь Забара

  • В ролях: Никита Панфилов, Андрей Саминин, Михаил Жонин, Ольга Олексий, Денис Роднянский, Светлана Зельбет, Ольга Морозова, Тарас Мельничук, Автандил Бежиашвили, Илья Прокопив...

  • У полицейского Максима Максимова за плечами много раскрытых преступлений. На службе он на хорошем счету, а вот личная жизнь не складывается: жена ушла к его лучшему другу и коллеге Леонидову. И, как известно, беда не приходит одна: во время очередного дела Максима подставляют. Он — еще недавно лучший сыщик в городе — остается без работы, друзей, денег и начинает пить.
    Однажды ему приходит сообщение от бывшего шефа и тестя Жарова. Максим приезжает к нему домой и оказывается на месте преступления. Тело убитого родственника охраняет раненная овчарка, прибывшие оперативники предлагают застрелить собаку, но Максим забирает пса к себе домой. Вместе с новым другом по кличке Пёс бывший полицейский начинает вести собственные расследования, первое из которых — загадочное убийство Жарова...

  • Премьера в Украине: 1 сентября 2015 (ICTV); Премьера в России: 16 мая 2016 (НТВ)




  • Качество видео: HDTVRip
  • Формат видео: AVI
  • Видео кодек: XviD
  • Аудио кодек: MP3
  • Видео: 704x400 (1.76:1), 25.000 fps, XviD MPEG-4, ~1200 kbps avg, 0.170 bit/pixel
  • Аудио: 48.0 kHz, MPEG Audio Layer 3, 2 ch, ~128.00 kbps avg
  • Субтитры: нет


General
Complete name : W:\O.S.A.\Торренты\Завершенные торренты\Pes.2015.XviD.HDTVRip.by.GeneralFilm\Serija.01.avi
Format : AVI
Format/Info : Audio Video Interleave
File size : 444 MiB
Duration : 46mn 32s
Overall bit rate : 1 335 Kbps
Writing application : VirtualDubMod 1.5.10.3 | www.virtualdub-fr.org || (build 2550/release)
Writing library : VirtualDubMod build 2550/release

Video
ID : 0
Format : MPEG-4 Visual
Format profile : Advanced Simple@L5
Format settings, BVOP : 1
Format settings, QPel : No
Format settings, GMC : No warppoints
Format settings, Matrix : Custom
Codec ID : XVID
Codec ID/Hint : XviD
Duration : 46mn 32s
Bit rate : 1 197 Kbps
Width : 704 pixels
Height : 400 pixels
Display aspect ratio : 16:9
Frame rate : 25.000 fps
Color space : YUV
Chroma subsampling : 4:2:0
Bit depth : 8 bits
Scan type : Progressive
Compression mode : Lossy
Bits/(Pixel*Frame) : 0.170
Stream size : 398 MiB (90%)
Writing library : XviD 73

Audio
ID : 1
Format : MPEG Audio
Format version : Version 1
Format profile : Layer 3
Codec ID : 55
Codec ID/Hint : MP3
Duration : 46mn 32s
Bit rate mode : Constant
Bit rate : 128 Kbps
Channel(s) : 2 channels
Sampling rate : 48.0 KHz
Compression mode : Lossy
Stream size : 42.6 MiB (10%)
Alignment : Aligned on interleaves
Interleave, duration : 40 ms (1.00 video frame)
Interleave, preload duration : 504 ms
Writing library : LAME3.99r
Encoding settings : -m s -V 4 -q 0 -lowpass 17 -b 128







_________________
===============================
IGNOSCITO SAEPE ALTERI, NUNQUAM TIBI
Вне форума Profile PM
Показать сообщения:    
Ответить на тему

Текущее время: 17-Окт 15:46

Часовой пояс: GMT + 3



Вы не можете начинать темы
Вы не можете отвечать на сообщения
Вы не можете редактировать свои сообщения
Вы не можете удалять свои сообщения
Вы не можете голосовать в опросах
Вы не можете прикреплять файлы к сообщениям
Вы не можете скачивать файлы
Рейтинг торрент трекеров - UpTracker.ru Анализ веб сайта Яндекс.Метрика
службы мониторинга серверов