Loading...
Error

Звонки / Rings (Ф. Хавьер Гутьеррес) [2016,ужасы, драма, BDRip 1080p] DUB | iTunes

Ответить на тему
 
Автор Сообщение

Theseus

Стаж: 8 лет 2 месяца

Сообщений: 4132

Режим только чтение: НЕТ

post 25-Апр-2017 21:06

Quote

Звонки / Rings

Год выпуска: 2016
Премьера (РФ): 2017
Страна: США
Жанр: ужасы, драма
Продолжительность: 01:42:11
Перевод: Профессиональный (полное дублирование) | iTunes
Режиссер: Ф. Хавьер Гутьеррес
В ролях: Матильда Анна Ингрид Лутс, Алекс Роу, Джонни Галэки, Винсент Д’Онофрио, Эйми Тигарден, Бонни Морган, Чак Дэвид Уиллис, Патрик Р. Уокер, Зак Рериг, Лаура Уиггинс...
Описание: Молодой человек увлеченно исследует мрачную субкультуру, связанную с таинственной видеокассетой, через 7 дней после просмотра которой гибнет всякий увидевший запись. Однако, его девушка уверена, что бойфренду грозит опасность, и чтобы спасти его, она решает принять удар на себя. Её ждет немало чудовищных открытий, но самым страшным станет фильм в фильме, который прежде никто не видел.


Качество: BDRip 1080p
Формат: MKV
Видео кодек: x.264
Аудио кодек: AC3
Видео: MPEG-4 AVC, 1920x1080, 16.2 Mbit/s, 23.976 fps
Аудио #01: 48 kHz, AC3, 5.1, 384 Kbps | iTunes | RUS |
Аудио #02: 48 kHz, AC3, 5.1, 640 Kbps | ENG
Субтитры: Русские (force, full), английские (full, SDH Colored)

General
Unique ID : 233546157576750862352502664289544969035 (0xAFB35A946E1EB42BB7F6EC90C9DA1B4B)
Complete name : Rings.2017.BDRip.1080p.ExKinoRay.mkv
Format : Matroska
Format version : Version 4 / Version 2
File size : 12.3 GiB
Duration : 1 h 42 min
Overall bit rate : 17.2 Mb/s
Encoded date : UTC 2017-04-24 21:09:25
Writing application : mkvmerge v11.0.0 ('Alive') 64bit
Writing library : libebml v1.3.4 + libmatroska v1.4.5

Video
ID : 1
Format : AVC
Format/Info : Advanced Video Codec
Format profile : High@L4.1
Format settings, CABAC : Yes
Format settings, ReFrames : 4 frames
Codec ID : V_MPEG4/ISO/AVC
Duration : 1 h 42 min
Bit rate : 16.2 Mb/s
Width : 1 920 pixels
Height : 1 080 pixels
Display aspect ratio : 16:9
Frame rate mode : Constant
Frame rate : 23.976 (24000/1001) FPS
Color space : YUV
Chroma subsampling : 4:2:0
Bit depth : 8 bits
Scan type : Progressive
Bits/(Pixel*Frame) : 0.326
Stream size : 11.5 GiB (94%)
Writing library : x264 core 148 r2665kMod a01e339
Encoding settings : cabac=1 / ref=4 / deblock=1:-1:-1 / analyse=0x3:0x133 / me=umh / subme=11 / psy=1 / fade_compensate=0.00 / psy_rd=1.00:0.00 / mixed_ref=1 / me_range=64 / chroma_me=1 / trellis=2 / 8x8dct=1 / cqm=0 / deadzone=21,11 / fast_pskip=0 / chroma_qp_offset=-2 / threads=12 / lookahead_threads=2 / sliced_threads=0 / nr=0 / decimate=0 / interlaced=0 / bluray_compat=0 / constrained_intra=0 / fgo=0 / bframes=9 / b_pyramid=2 / b_adapt=2 / b_bias=0 / direct=3 / weightb=1 / open_gop=0 / weightp=2 / keyint=240 / keyint_min=24 / scenecut=40 / intra_refresh=0 / rc_lookahead=40 / rc=2pass / mbtree=1 / bitrate=16200 / ratetol=1.0 / qcomp=0.70 / qpmin=0 / qpmax=69 / qpstep=4 / cplxblur=20.0 / qblur=0.5 / vbv_maxrate=50000 / vbv_bufsize=30000 / nal_hrd=none / filler=0 / ip_ratio=1.20 / aq=3:0.80
Language : English
Default : Yes
Forced : No

Audio #1
ID : 2
Format : AC-3
Format/Info : Audio Coding 3
Format settings, Endianness : Big
Codec ID : A_AC3
Duration : 1 h 42 min
Bit rate mode : Constant
Bit rate : 384 kb/s
Channel(s) : 6 channels
Channel positions : Front: L C R, Side: L R, LFE
Sampling rate : 48.0 kHz
Frame rate : 31.250 FPS (1536 spf)
Bit depth : 16 bits
Compression mode : Lossy
Stream size : 281 MiB (2%)
Title : iTunes
Language : Russian
Service kind : Complete Main
Default : Yes
Forced : No

Audio #2
ID : 3
Format : AC-3
Format/Info : Audio Coding 3
Format settings, Endianness : Big
Codec ID : A_AC3
Duration : 1 h 42 min
Bit rate mode : Constant
Bit rate : 640 kb/s
Channel(s) : 6 channels
Channel positions : Front: L C R, Side: L R, LFE
Sampling rate : 48.0 kHz
Frame rate : 31.250 FPS (1536 spf)
Bit depth : 16 bits
Compression mode : Lossy
Stream size : 468 MiB (4%)
Title : Original
Language : English
Service kind : Complete Main
Default : No
Forced : No

Text #1
ID : 4
Format : UTF-8
Codec ID : S_TEXT/UTF8
Codec ID/Info : UTF-8 Plain Text
Duration : 1 h 38 min
Bit rate : 0 b/s
Count of elements : 17
Stream size : 726 Bytes (0%)
Title : Forced
Language : Russian
Default : Yes
Forced : No

Text #2
ID : 5
Format : UTF-8
Codec ID : S_TEXT/UTF8
Codec ID/Info : UTF-8 Plain Text
Duration : 1 h 41 min
Bit rate : 48 b/s
Count of elements : 793
Stream size : 36.2 KiB (0%)
Title : Full
Language : Russian
Default : No
Forced : No

Text #3
ID : 6
Format : UTF-8
Codec ID : S_TEXT/UTF8
Codec ID/Info : UTF-8 Plain Text
Duration : 1 h 36 min
Bit rate : 30 b/s
Count of elements : 795
Stream size : 21.3 KiB (0%)
Title : Full
Language : English
Default : No
Forced : No

Text #4
ID : 7
Format : UTF-8
Codec ID : S_TEXT/UTF8
Codec ID/Info : UTF-8 Plain Text
Duration : 1 h 36 min
Bit rate : 50 b/s
Count of elements : 999
Stream size : 35.8 KiB (0%)
Title : SDH {Colored)
Language : English
Default : No
Forced : No

Menu
00:00:00.000 : en:00:00:00.000
00:08:42.731 : en:00:08:42.731
00:15:28.136 : en:00:15:28.136
00:20:39.989 : en:00:20:39.989
00:25:25.190 : en:00:25:25.190
00:32:55.182 : en:00:32:55.182
00:39:17.855 : en:00:39:17.855
00:48:53.722 : en:00:48:53.722
00:55:06.929 : en:00:55:06.929
01:00:24.371 : en:01:00:24.371
01:07:38.221 : en:01:07:38.221
01:18:21.113 : en:01:18:21.113
01:31:47.210 : en:01:31:47.210
01:36:37.500 : en:01:36:37.500




Скрыт Profile PM
Показать сообщения:    
Ответить на тему

Текущее время: 17-Дек 14:39

Часовой пояс: GMT + 3



Вы не можете начинать темы
Вы не можете отвечать на сообщения
Вы не можете редактировать свои сообщения
Вы не можете удалять свои сообщения
Вы не можете голосовать в опросах
Вы не можете прикреплять файлы к сообщениям
Вы не можете скачивать файлы
Рейтинг торрент трекеров - UpTracker.ru Анализ веб сайта Яндекс.Метрика
службы мониторинга серверов