Loading...
Error

Наемник / American Assassin (Майкл Куэста) [2017 г., боевик, триллер, BDRip 1080p] [UKR/ENG]

Ответить на тему
 
Автор Сообщение

Neo

Стаж: 3 года 3 месяца

Сообщений: 32

Режим только чтение: НЕТ

post 01-Дек-2017 19:27

Quote

Наемник / American Assassin

Год выхода: 2017
Страна: США
Жанр: боевик, триллер
Продолжительность: 01:51:38
Перевод: Профессиональный (полное дублирование / Украинский) | Line
Субтитры: Английские

Режиссер: Майкл Куэста

В ролях: Дилан О’Брайен, Майкл Китон, Шарлотта Вега, Кристофер Уэбстер, Шахид Ахмед, Бастер Ривз, Ник Кавальере, Саймон Коннолли, Юсеф «Джо» Свейд, Джуст Янссен

О фильме: Тайный наёмник ЦРУ Митч Рэпп раздавлен потерей невесты в результате теракта. Заместитель директора ЦРУ назначает Стэна Хёрли обучать убитого горем, но серьёзно настроенного Митча для предотвращения террористических операций и охоты на преступников. Вместе они исследуют волну, на первый взгляд, случайных нападений на военные и гражданские объекты. Но позже напарникам предстоит объединиться с турецким агентом, чтобы предотвратить начало Третьей мировой войны на Ближнем Востоке.



Качество: BDRip 1080p
Формат: MKV
Видео кодек: x.264
Аудио кодек: AC3
Видео: AVC, 1920x808 (2.40:1), 23.976 fps, 9 172 Kbps
Аудио #1: AC-3, 48.0 KHz, 2 ch, 192 Kbps, CBR | UKR (Украинский дубляж | Line)
Аудио #2: AC-3, 48.0 KHz, 6 ch, 640 Kbps, CBR | ENG (Оригинал)



Примечание: В некоторых местах в укр. аудио дорожке сопровождение небольшим шумом, на данный момент лучшего нет
Общее
Уникальный идентификатор : 243613573681140922825584669115161159262 (0xB746448421B64A249BE2817D19D6A65E)
Полное имя : American.assassin.2017.BDRip.1080p.Ukr.Eng.mkv
Формат : Matroska
Версия формата : Version 4 / Version 2
Размер файла : 7,80 Гбайт
Продолжительность : 1 ч. 51 м.
Общий поток : 10,0 Мбит/сек
Дата кодирования : UTC 2017-12-01 15:01:29
Программа кодирования : mkvmerge v8.3.0 ('Over the Horizon') 64bit
Библиотека кодирования : libebml v1.3.1 + libmatroska v1.4.2

Видео
Идентификатор : 1
Формат : AVC
Формат/Информация : Advanced Video Codec
Профиль формата : High@L4.1
Параметр CABAC формата : Да
Параметр ReFrames формата : 5 кадров
Идентификатор кодека : V_MPEG4/ISO/AVC
Продолжительность : 1 ч. 51 м.
Битрейт : 9172 Кбит/сек
Ширина : 1920 пикселей
Высота : 808 пикселей
Соотношение сторон : 2,40:1
Режим частоты кадров : Постоянный
Частота кадров : 23,976 (24000/1001) кадра/сек
Цветовое пространство : YUV
Субдискретизация насыщенности : 4:2:0
Битовая глубина : 8 бит
Тип развёртки : Прогрессивная
Бит/(Пиксели*Кадры) : 0.247
Размер потока : 7,15 Гбайт (92%)
Библиотека кодирования : x264 core 152 r2851 ba24899
Настройки программы : cabac=1 / ref=5 / deblock=1:0:0 / analyse=0x3:0x133 / me=umh / subme=7 / psy=1 / psy_rd=1.00:0.00 / mixed_ref=1 / me_range=16 / chroma_me=1 / trellis=1 / 8x8dct=1 / cqm=0 / deadzone=21,11 / fast_pskip=0 / chroma_qp_offset=-2 / threads=24 / lookahead_threads=4 / sliced_threads=0 / nr=0 / decimate=1 / interlaced=0 / bluray_compat=0 / constrained_intra=0 / bframes=3 / b_pyramid=2 / b_adapt=1 / b_bias=0 / direct=1 / weightb=1 / open_gop=0 / weightp=2 / keyint=250 / keyint_min=23 / scenecut=40 / intra_refresh=0 / rc_lookahead=40 / rc=2pass / mbtree=1 / bitrate=9172 / ratetol=1.0 / qcomp=0.60 / qpmin=0 / qpmax=69 / qpstep=4 / cplxblur=20.0 / qblur=0.5 / ip_ratio=1.40 / aq=1:1.00
Язык : English
Default : Да
Forced : Нет

Аудио #1
Идентификатор : 2
Формат : AC-3
Формат/Информация : Audio Coding 3
Параметр Endianness формата : Big
Идентификатор кодека : A_AC3
Продолжительность : 1 ч. 51 м.
Вид битрейта : Постоянный
Битрейт : 192 Кбит/сек
Каналы : 2 канала
Расположение каналов : Front: L R
Частота : 48,0 КГц
Частота кадров : 31,250 кадров/сек (1536 spf)
Битовая глубина : 16 бит
Метод сжатия : С потерями
Размер потока : 153 Мбайт (2%)
Заголовок : Line
Язык : Ukrainian
ServiceKind/String : Complete Main
Default : Да
Forced : Нет

Аудио #2
Идентификатор : 3
Формат : AC-3
Формат/Информация : Audio Coding 3
Параметр Endianness формата : Big
Идентификатор кодека : A_AC3
Продолжительность : 1 ч. 51 м.
Вид битрейта : Постоянный
Битрейт : 640 Кбит/сек
Каналы : 6 каналов
Расположение каналов : Front: L C R, Side: L R, LFE
Частота : 48,0 КГц
Частота кадров : 31,250 кадров/сек (1536 spf)
Битовая глубина : 16 бит
Метод сжатия : С потерями
Размер потока : 511 Мбайт (6%)
Язык : English
ServiceKind/String : Complete Main
Default : Нет
Forced : Нет

Текст
Идентификатор : 4
Формат : VobSub
Режим смешивания : zlib
Идентификатор кодека : S_VOBSUB
Идентификатор кодека/Информация : Picture based subtitle format used on DVDs
Продолжительность : 1 ч. 42 м.
Битрейт : 4982 бит/сек
ElementCount : 1289
Размер потока : 3,65 Мбайт (0%)
Язык : English
Default : Нет
Forced : Нет

Вне форума Profile PM
Показать сообщения:    
Ответить на тему

Текущее время: 12-Дек 20:46

Часовой пояс: GMT + 3



Вы не можете начинать темы
Вы не можете отвечать на сообщения
Вы не можете редактировать свои сообщения
Вы не можете удалять свои сообщения
Вы не можете голосовать в опросах
Вы не можете прикреплять файлы к сообщениям
Вы не можете скачивать файлы
Рейтинг торрент трекеров - UpTracker.ru Анализ веб сайта Яндекс.Метрика
службы мониторинга серверов