Loading...
Error

Безбашенные / Renegades (Стивен Куэйл) [2017 г., боевик, триллер, WEB-DL 1080p] [UKR/ENG]

Ответить на тему
 
Автор Сообщение

Neo

Стаж: 3 года 4 месяца

Сообщений: 42

Режим только чтение: НЕТ

post 09-Янв-2018 22:40

Quote

Безбашенные / Renegades
Год выхода: 2017
Страна: Франция, Германия
Жанр: боевик, триллер
Продолжительность: 01:45:36
Перевод: Профессиональный (полное дублирование / Украинский) | Line
Субтитры: English

Режиссер: Стивен Куэйл

В ролях: Дж.К. Симмонс, Сильвия Хукс, Салливан Степлтон, Юэн Бремнер, Клеменс Шик, Диармед Мёрта, Чарли Бьюли, Димитрий Леонидас, Славко Собин, Джошуа Генри

О фильме: На дне озера охваченной войной Боснии команда спецназа ВМС США «Морские котики» находит клад — золотые слитки стоимостью более $300 млн. Миссия команды, нарушившей присягу и рискующей жизнью — поднять золото со дна озера. Для других она была бы невыполнимой, но только не для этих безбашенных парней: у них есть 10 часов, чтобы завершить задуманное.



Качество: WEB-DL 1080p
Формат: MKV
Видео кодек: x.264
Аудио кодек: AC3
Видео: AVC, 1916x800 (2.40:1), 23.976 fps, 4 544 Kbps
Аудио #1: AC-3, 48.0 KHz, 2 ch, 192 Kbps, CBR (Ukrainian)
Аудио #2: AC-3, 48.0 KHz, 6 ch, 384 Kbps, CBR (English)
Общее
Уникальный идентификатор : 252395279781725072652284657394497557627 (0xBDE1900E1D2C2590A6F66CDBCE67147B)
Полное имя : Renegades (2017) WEB-DL 1080p [UKR_ENG] [Hurtom].mkv
Формат : Matroska
Версия формата : Version 4 / Version 2
Размер файла : 3,78 Гбайт
Продолжительность : 1 ч. 45 м.
Общий поток : 5122 Кбит/сек
Дата кодирования : UTC 2018-01-07 11:59:51
Программа кодирования : mkvmerge v14.0.0 ('Flow') 64bit
Библиотека кодирования : libebml v1.3.4 + libmatroska v1.4.5
Обложка : Yes
Attachments : cover

Видео
Идентификатор : 1
Формат : AVC
Формат/Информация : Advanced Video Codec
Профиль формата : High@L4
Параметр CABAC формата : Да
Параметр ReFrames формата : 5 кадров
Идентификатор кодека : V_MPEG4/ISO/AVC
Продолжительность : 1 ч. 45 м.
Битрейт : 4544 Кбит/сек
Ширина : 1916 пикселей
Высота : 800 пикселей
Соотношение сторон : 2,40:1
Режим частоты кадров : Постоянный
Частота кадров : 23,976 (24000/1001) кадра/сек
Цветовое пространство : YUV
Субдискретизация насыщенности : 4:2:0
Битовая глубина : 8 бит
Тип развёртки : Прогрессивная
Бит/(Пиксели*Кадры) : 0.124
Размер потока : 3,35 Гбайт (89%)
Язык : English
Default : Да
Forced : Нет
Цветовой диапазон : Limited
Основные цвета : BT.709
Характеристики трансфера : BT.709
Коэффициенты матрицы : BT.709

Аудио #1
Идентификатор : 2
Формат : AC-3
Формат/Информация : Audio Coding 3
Параметр Endianness формата : Big
Идентификатор кодека : A_AC3
Продолжительность : 1 ч. 45 м.
Вид битрейта : Постоянный
Битрейт : 192 Кбит/сек
Каналы : 2 канала
Расположение каналов : Front: L R
Частота : 48,0 КГц
Частота кадров : 31,250 кадров/сек (1536 spf)
Битовая глубина : 16 бит
Метод сжатия : С потерями
Задержка видео : -42 мс.
Размер потока : 145 Мбайт (4%)
Заголовок : AC3 2.0 @ 192 kbps
Язык : Ukrainian
ServiceKind/String : Complete Main
Default : Да
Forced : Да

Аудио #2
Идентификатор : 3
Формат : AC-3
Формат/Информация : Audio Coding 3
Параметр Endianness формата : Big
Идентификатор кодека : A_AC3
Продолжительность : 1 ч. 45 м.
Вид битрейта : Постоянный
Битрейт : 384 Кбит/сек
Каналы : 6 каналов
Расположение каналов : Front: L C R, Side: L R, LFE
Частота : 48,0 КГц
Частота кадров : 31,250 кадров/сек (1536 spf)
Битовая глубина : 16 бит
Метод сжатия : С потерями
Задержка видео : -42 мс.
Размер потока : 290 Мбайт (7%)
Заголовок : AC3 5.1 @ 384 kbps
Язык : English
ServiceKind/String : Complete Main
Default : Нет
Forced : Нет

Текст
Идентификатор : 4
Формат : UTF-8
Идентификатор кодека : S_TEXT/UTF8
Идентификатор кодека/Информация : UTF-8 Plain Text
Продолжительность : 1 ч. 25 м.
Битрейт : 2 бит/сек
ElementCount : 79
Размер потока : 1,67 Кбайт (0%)
Заголовок : FORCED
Язык : English
Default : Нет
Forced : Нет

Меню
00:00:00.000 : en:Chapter 1
00:34:10.091 : en:Chapter 2
01:09:58.906 : en:Chapter 3
01:36:17.359 : en:Chapter 4

Вне форума Profile PM
Показать сообщения:    
Ответить на тему

Текущее время: 22-Янв 05:09

Часовой пояс: GMT + 3



Вы не можете начинать темы
Вы не можете отвечать на сообщения
Вы не можете редактировать свои сообщения
Вы не можете удалять свои сообщения
Вы не можете голосовать в опросах
Вы не можете прикреплять файлы к сообщениям
Вы не можете скачивать файлы
Рейтинг торрент трекеров - UpTracker.ru Анализ веб сайта Яндекс.Метрика
службы мониторинга серверов