Loading...
Error

(Jazz, Classical) George Gershwin – with Todd Duncan and Anne Brown - Porgy And Bess - 1939, FLAC (tracks), lossless

Ответить на тему
 
Автор Сообщение

юра63

Стаж: 9 месяцев

Сообщений: 1

Израиль

Режим только чтение: НЕТ

post 28-Янв-2018 23:31

Quote

George Gershwin – Porgy And Bess
with Todd Duncan and Anne Brown

Жанр: Jazz, Classical
Носитель: 4Х12"
Год выпуска: 1939(?)
Лейбл: Decca Records - 145/29067-70
Страна-производитель: US
Аудио кодек: FLAC
Тип рипа: tracks
Формат записи: 24/48 (dual mono)
Формат раздачи: 24/44,1 (dual mono)
Продолжительность: 00:29:00
Тэги: прописаны
Источник оцифровки: юра63
Код класса состояния винила: VG
Устройство воспроизведения: Audio-Techica At-Lp-120usb/78rpm
Головка звукоснимателя: At-Art9 J323/78
Предварительный усилитель: Luxman E-200
АЦП: Creativ Labs
Программа-оцифровщик: Adobe Audition CS6
Обработка: без обработки

A Alexander Smallens And Anne Brown - Overture And Summertime
B Anne Brown With Eva Jessye Choir - My Man's Gone Now
C Todd Duncan With Eva Jessye Choir - I Got Plenty O' Nuttin'
D Todd Duncan With Eva Jessye Choir - Buzzard Song
E Todd Duncan And Anne Brown With Eva Jessye Choir - Bess, You Is My Woman
F Todd Duncan With Eva Jessye Choir - It Ain't Necessarily So
G Eva Jessye Choir - The Requiem
H Todd Duncan With Eva Jessye Choir - Porgy's Lament And Finale
==========================================================
Credits
Conductor – Alexander Smallens
Lyrics By – Du Bose Hayward, Ira Gershwin
Music By – George Gershwin
Orchestra – Decca Symphony Orchestra
==========================================================
Notes
Book of four 12" 78RPM records
foobar2000 1.1.3 / Dynamic Range Meter 1.1.1
log date: 2018-01-19 20:45:02

--------------------------------------------------------------------------------
Analyzed: Alexander Smallens And Anne Brown / Porgy And Bess (1)
Anne Brown With Eva Jessye Choir / Porgy And Bess (2)
Eva Jessye Choir / Porgy And Bess (3)
Todd Duncan And Anne Brown With Eva Jessye Choir / Porgy And Bess (4)
Todd Duncan With Eva Jessye Choir / Porgy And Bess (5-8)
--------------------------------------------------------------------------------

DR Peak RMS Duration Track
--------------------------------------------------------------------------------
DR12 0.00 dB -16.72 dB 3:40 ?-Overture And Summertime
DR9 0.00 dB -14.25 dB 4:00 ?-My Man's Gone Now
DR11 0.00 dB -14.80 dB 4:00 ?-The Requiem
DR10 0.00 dB -13.74 dB 4:36 ?-Bess, You Is My Woman
DR8 -0.86 dB -12.22 dB 2:45 ?-I Got Plenty O' Nuttin'
DR9 -0.97 dB -14.24 dB 3:46 ?-Buzzard Song
DR11 -0.12 dB -14.87 dB 2:50 ?-It Ain't Necessarily So
DR8 -1.34 dB -12.29 dB 3:22 ?-Porgy's Lament And Finale
--------------------------------------------------------------------------------

Number of tracks: 8
Official DR value: DR10

Samplerate: 44100 Hz
Channels: 2
Bits per sample: 24
Bitrate: 1633 kbps
Codec: FLAC
================================================================================

Вне форума Profile PM

Theseus

Стаж: 9 лет 1 месяц

Сообщений: 4703

Режим только чтение: НЕТ

post 04-Май-2018 19:05 (спустя 3 месяца 6 дней)

Quote

Раздача восстановлена 04.05.18

_________________
Скрыт Profile PM
Показать сообщения:    
Ответить на тему

Текущее время: 14-Ноя 23:14

Часовой пояс: GMT + 3



Вы не можете начинать темы
Вы не можете отвечать на сообщения
Вы не можете редактировать свои сообщения
Вы не можете удалять свои сообщения
Вы не можете голосовать в опросах
Вы не можете прикреплять файлы к сообщениям
Вы не можете скачивать файлы
Рейтинг торрент трекеров - UpTracker.ru Анализ веб сайта Яндекс.Метрика
службы мониторинга серверов