Loading...
Error

Детство Шелдона (Молодой Шелдон) / Young Sheldon (1 Сезон / 1 - 19 Серия из 24) (Майкл Цинберг, Марк Сендроуски, Ховард Дойч,) [2017/18, Комедия, WEB-DLRip] [Кураж-Бамбей]

Ответить на тему
 
Автор Сообщение

Theseus

Стаж: 9 лет

Сообщений: 4612

Режим только чтение: НЕТ

post 08-Фев-2018 20:36

Quote

Детство Шелдона (Молодой Шелдон) / Young Sheldon
Год выхода: 2017/18
Страна: США
Жанр: комедия
Продолжительность серии: ~00:20:00
Перевод: Профессиональный (одноголосый) |Кураж-Бамбей|
Субтитры: Отсутствуют
Режиссер: Майкл Цинберг, Марк Сендроуски, Ховард Дойч
В ролях: Марсия Энн Бёррс, Док Фэрроу, Рекс Линн, Уайатт МакКлюр, Брайан Степанек, Мелисса Тэнг, Иэн Армитедж, Лэнс Барбер, Монтана Джордан, Джим Парсонс
О фильме: Сериал является приквелом к «Теории большого взрыва» и в нем рассказывается о Шелдоне Купере, когда ему было 9 лет и он ходил в школу в Восточном Техасе. Джим Парсонс, игравший Шелдона в «Теории большого взрыва», выступит в роли рассказчика, а также он один из исполнительных продюсеров.

Качество: WEB-DLRip
Формат: AVI
Видео кодек: XviD
Аудио кодек: AC3
Видео: MPEG4, XviD, 720x400 (16:9), 23.976 fps, 1 572 Kbps (0.228 bit/pixel)
Аудио #1: AC-3, 48.0 KHz, 2 ch, 192 Kbps, CBR | RUS
Аудио #2: AC-3, 48.0 KHz, 2 ch, 192 Kbps, CBR | ENG
Без рекламы !
Общее
Полное имя : Young.Sheldon.S01E07.A.Brisket.Voodoo.and.Cannonball.Run.AMZN.WEB-DLRip-Kuraj-Bambey.avi
Формат : AVI
Формат/Информация : Audio Video Interleave
Размер файла : 268 Мбайт
Продолжительность : 19 м. 2 с.
Общий поток : 1970 Кбит/сек
Программа кодирования : VirtualDubMod 1.5.10.2 (build 2540/release)
Библиотека кодирования : VirtualDubMod build 2540/release

Видео
Идентификатор : 0
Формат : MPEG-4 Visual
Профиль формата : Advanced Simple@L5
Параметр BVOP формата : Да
Параметр QPel формата : Нет
Параметр GMC формата : Без точки перехода
Параметр матрицы формата : Default (H.263)
Идентификатор кодека : XVID
Идентификатор кодека/Подсказка : XviD
Продолжительность : 19 м. 2 с.
Битрейт : 1572 Кбит/сек
Ширина : 720 пикселей
Высота : 400 пикселей
Соотношение сторон : 16:9
Частота кадров : 23,976 (24000/1001) кадра/сек
Цветовое пространство : YUV
Субдискретизация насыщенности : 4:2:0
Битовая глубина : 8 бит
Тип развёртки : Прогрессивная
Метод сжатия : С потерями
Бит/(Пиксели*Кадры) : 0.228
Размер потока : 214 Мбайт (80%)
Библиотека кодирования : XviD 73

Аудио #1
Идентификатор : 1
Формат : AC-3
Формат/Информация : Audio Coding 3
Параметр Endianness формата : Big
Идентификатор кодека : 2000
Продолжительность : 19 м. 2 с.
Вид битрейта : Постоянный
Битрейт : 192 Кбит/сек
Каналы : 2 канала
Расположение каналов : Front: L R
Частота : 48,0 КГц
Частота кадров : 31,250 кадров/сек (1536 spf)
Битовая глубина : 16 бит
Метод сжатия : С потерями
Размер потока : 26,1 Мбайт (10%)
Выравнивание : Соединение по промежуткам
Продолжительность промежутка : 42 мс. (1,00 видеокадр)
Время предзагрузки промежутка : 512 мс.
ServiceKind/String : Complete Main

Аудио #2
Идентификатор : 2
Формат : AC-3
Формат/Информация : Audio Coding 3
Параметр Endianness формата : Big
Идентификатор кодека : 2000
Продолжительность : 19 м. 2 с.
Вид битрейта : Постоянный
Битрейт : 192 Кбит/сек
Каналы : 2 канала
Расположение каналов : Front: L R
Частота : 48,0 КГц
Частота кадров : 31,250 кадров/сек (1536 spf)
Битовая глубина : 16 бит
Метод сжатия : С потерями
Размер потока : 26,1 Мбайт (10%)
Выравнивание : Соединение по промежуткам
Продолжительность промежутка : 42 мс. (1,00 видеокадр)
Время предзагрузки промежутка : 512 мс.
ServiceKind/String : Complete Main



Скрыт Profile PM
Показать сообщения:    
Ответить на тему

Текущее время: 25-Сен 04:47

Часовой пояс: GMT + 3



Вы не можете начинать темы
Вы не можете отвечать на сообщения
Вы не можете редактировать свои сообщения
Вы не можете удалять свои сообщения
Вы не можете голосовать в опросах
Вы не можете прикреплять файлы к сообщениям
Вы не можете скачивать файлы
Рейтинг торрент трекеров - UpTracker.ru Анализ веб сайта Яндекс.Метрика
службы мониторинга серверов