Loading...
Error

Все лучшее в тебе / What I Like About You, сезоны 2-4 (Шелли Дженсен) [2002, Комедия, WEB-DL 1080p]

Ответить на тему
 
Автор Сообщение

Alex046

Стаж: 2 месяца 7 дней

Сообщений: 3

Украина

Режим только чтение: НЕТ

post 07-Июн-2018 19:27

Quote

Все лучшее в тебе / What I Like About You (сезоны 2-4)

Год выпуска: 2002
Страна: США
Жанр: Комедия
Продолжительность: 00:22:00
Перевод: Отсутствует
Субтитры: Английские (встроенные)

Режиссер: Шелли Дженсен, Гари Хэлворсон
Продюсер: Дрю Браун, Джо Давола, Грант Джонсон
Сценарий: Уил Кэлхун, Дэн Шнайдер, Кэрин Лукас



В ролях: Аманда Байнс, Уэсли Джонатан, Дженни Гарт, Саймон Рекс и др.

Описание: После того, как отец 16-летней Холли и 28-летней Валери едет работать в Японию,
старшей сестре приходится присматривать за своей неудачливой младшей.
Налаженная жизнь, многообещающая карьера, деловые связи
и отношения с мужчинами начинают рушиться прямо на глазах.
И Холли, и Валери приходится ко многому привыкать,
практически начиная жизнь заново, чтобы приспособиться друг к другу

Качество: WEB-DL 1080p
Формат: MKV
Видео кодек: H264
Аудио кодек: AC3
Видео: MPEG4 Video (H264) 1920x1080 23.976fps, 13.0 mb/s
Аудио: AC3, 2 ch, 224 Kbps, 48.0 kHz
Общее
Уникальный идентификатор : 250999788875128663032828542955954325083 (0xBCD4CD0A98D98C77AC442B06AFAF465B)
Полное имя : E:\uTorrent\What I Like About You S2-4\Season 2\What I Like About You S2e01.mkv
Формат : Matroska
Версия формата : Version 4 / Version 2
Размер файла : 2,04 Гбайт
Продолжительность : 22 м. 0 с.
Режим общего битрейта : Переменный
Общий поток : 13,2 Мбит/сек
Дата кодирования : UTC 2016-09-21 01:07:49
Программа кодирования : mkvmerge v8.3.0 ('Over the Horizon') 64bit
Библиотека кодирования : libebml v1.3.1 + libmatroska v1.4.2

Видео
Идентификатор : 2
Формат : AVC
Формат/Информация : Advanced Video Codec
Профиль формата : High@L4
Настройки формата : CABAC / 4 Ref Frames
Параметр CABAC формата : Да
Параметр RefFrames формата : 4 кадра
Идентификатор кодека : V_MPEG4/ISO/AVC
Продолжительность : 22 м. 0 с.
Вид битрейта : Переменный
Битрейт : 13,0 Мбит/сек
Максимальный битрейт : 15,0 Мбит/сек
Ширина : 1920 пикселей
Высота : 1080 пикселей
Соотношение сторон : 16:9
Режим частоты кадров : Постоянный
Частота кадров : 23,976 (24000/1001) кадра/сек
Цветовое пространство : YUV
Субдискретизация насыщенности : 4:2:0
Битовая глубина : 8 бит
Тип развёртки : Прогрессивная
Бит/(Пиксели*Кадры) : 0.262
Размер потока : 2,00 Гбайт (98%)
Библиотека кодирования : x264 core 148 r2623 d5b2374
Настройки программы : cabac=1 / ref=4 / deblock=1:-1:-1 / analyse=0x3:0x133 / me=umh / subme=9 / psy=1 / psy_rd=1.00:0.15 / mixed_ref=1 / me_range=24 / chroma_me=1 / trellis=2 / 8x8dct=1 / cqm=0 / deadzone=21,11 / fast_pskip=1 / chroma_qp_offset=-3 / threads=34 / lookahead_threads=5 / sliced_threads=0 / nr=150 / decimate=1 / interlaced=0 / bluray_compat=0 / constrained_intra=0 / bframes=8 / b_pyramid=2 / b_adapt=2 / b_bias=0 / direct=3 / weightb=1 / open_gop=0 / weightp=2 / keyint=120 / keyint_min=61 / scenecut=0 / intra_refresh=0 / rc_lookahead=120 / rc=crf / mbtree=1 / crf=18.0 / qcomp=0.60 / qpmin=0 / qpmax=69 / qpstep=4 / vbv_maxrate=15000 / vbv_bufsize=31250 / crf_max=0.0 / nal_hrd=vbr / filler=0 / ip_ratio=1.40 / aq=3:1.00
Default : Да
Forced : Нет
Цветовой диапазон : Limited
Основные цвета : BT.709
Характеристики трансфера : BT.709
Коэффициенты матрицы : BT.709

Аудио
Идентификатор : 1
Формат : E-AC-3
Формат/Информация : Enhanced Audio Coding 3
Идентификатор кодека : A_EAC3
Продолжительность : 22 м. 0 с.
Вид битрейта : Постоянный
Битрейт : 224 Кбит/сек
Каналы : 2 канала
Расположение каналов : Front: L R
Частота : 48,0 КГц
Частота кадров : 187,500 кадров/сек (256 SPF)
Метод сжатия : С потерями
Размер потока : 35,3 Мбайт (2%)
Язык : English
ServiceKind/String : Complete Main
Default : Да
Forced : Нет

Текст
Идентификатор : 3
Формат : UTF-8
Идентификатор кодека : S_TEXT/UTF8
Идентификатор кодека/Информация : UTF-8 Plain Text
Продолжительность : 21 м. 26 с.
Битрейт : 100 бит/сек
ElementCount : 521
Размер потока : 15,7 Кбайт (0%)
Default : Да
Forced : Нет


Последний раз редактировалось: Alex046 (07-06-2018 21:15), всего редактировалось 4 раз(а)
Вне форума Profile PM

Alex046

Стаж: 2 месяца 7 дней

Сообщений: 3

Украина

Режим только чтение: НЕТ

post 09-Июн-2018 02:06 (спустя 1 день 6 часов)

Quote

Создал раздачу на рутрекере


Последний раз редактировалось: Alex046 (09-06-2018 14:02), всего редактировалось 2 раз(а)
Вне форума Profile PM
Показать сообщения:    
Ответить на тему

Текущее время: 15-Авг 02:30

Часовой пояс: GMT + 3



Вы не можете начинать темы
Вы не можете отвечать на сообщения
Вы не можете редактировать свои сообщения
Вы не можете удалять свои сообщения
Вы не можете голосовать в опросах
Вы не можете прикреплять файлы к сообщениям
Вы не можете скачивать файлы
Рейтинг торрент трекеров - UpTracker.ru Анализ веб сайта Яндекс.Метрика
службы мониторинга серверов