Loading...
Error

Секса не будет!!! / Blockers (Кэй Кэннон) [2018 г., Комедия, BDRip 1080p] [UKR/ENG]

Ответить на тему
 
Автор Сообщение

Theseus

Стаж: 8 лет 10 месяцев

Сообщений: 4501

Режим только чтение: НЕТ

post 22-Июн-2018 13:38

Quote

Секса не будет!!! / Blockers

Год выхода: 2018
Страна: США
Жанр: Комедия
Продолжительность: 01:41:57
Перевод: Профессиональный (полное дублирование) | Украинский [LeDoyen]
Субтитры: Английские
Режиссер: Кэй Кэннон
В ролях: Лесли Манн, Айк Баринхолц, Джон Сина, Кэтрин Ньютон, Джина Гершон, Джун Рафаэль, Грэм Филлипс, Гэри Коул, Хэннибал Бёресс, Колтон Данн
О фильме: У трех подруг грандиозные планы на выпускной. Случайно об этом узнав, их родители решают во что бы то ни стало предотвратить непоправимое.

Качество: BDRip 1080p
Формат: MKV
Видео кодек: x.264
Аудио кодек: AC3, DTS
Видео: AVC, 1920x804 (2.40:1), 23.976 fps, 12.0 Mbps
Аудио 1: AC-3, 48.0 KHz, 2 ch, 192 Kbps, CBR [UKR (Дубляж / Студия LeDoyen)]
Аудио 2: DTS, 48.0 KHz, 6 ch, 1509 Kbps, CBR [ENG (Оригинал)]



Код:

Общее
Уникальный идентификатор                 : 254916819155750145951895713491049204365 (0xBFC7318B71BAC8EAAD811443799F4A8D)
Полное имя                               : Blockers.2018.BDRip.1080p.mkv
Формат                                   : Matroska
Версия формата                           : Version 4 / Version 2
Размер файла                             : 9,76 Гбайт
Продолжительность                        : 1 ч. 41 м.
Общий поток                              : 13,7 Мбит/сек
Дата кодирования                         : UTC 2018-06-22 08:26:22
Программа кодирования                    : mkvmerge v8.3.0 ('Over the Horizon') 64bit
Библиотека кодирования                   : libebml v1.3.1 + libmatroska v1.4.2

Видео
Идентификатор                            : 1
Формат                                   : AVC
Формат/Информация                        : Advanced Video Codec
Профиль формата                          : High@L4.1
Настройки формата                        : CABAC / 5 Ref Frames
Параметр CABAC формата                   : Да
Параметр RefFrames формата               : 5 кадров
Идентификатор кодека                     : V_MPEG4/ISO/AVC
Продолжительность                        : 1 ч. 41 м.
Битрейт                                  : 12,0 Мбит/сек
Ширина                                   : 1920 пикселей
Высота                                   : 804 пикселя
Соотношение сторон                       : 2,40:1
Режим частоты кадров                     : Постоянный
Частота кадров                           : 23,976 (24000/1001) кадра/сек
Цветовое пространство                    : YUV
Субдискретизация насыщенности            : 4:2:0
Битовая глубина                          : 8 бит
Тип развёртки                            : Прогрессивная
Бит/(Пиксели*Кадры)                      : 0.324
Размер потока                            : 8,54 Гбайт (88%)
Библиотека кодирования                   : x264 core 148 r2665kMod a01e339
Настройки программы                      : cabac=1 / ref=5 / deblock=1:-3:-3 / analyse=0x3:0x133 / me=umh / subme=11 / psy=1 / fade_compensate=0.00 / psy_rd=0.85:0.00 / mixed_ref=1 / me_range=48 / chroma_me=1 / trellis=2 / 8x8dct=1 / cqm=0 / deadzone=21,11 / fast_pskip=0 / chroma_qp_offset=-2 / threads=24 / lookahead_threads=4 / sliced_threads=0 / nr=0 / decimate=0 / interlaced=0 / bluray_compat=0 / constrained_intra=0 / fgo=0 / bframes=8 / b_pyramid=2 / b_adapt=2 / b_bias=0 / direct=3 / weightb=1 / open_gop=0 / weightp=2 / keyint=240 / keyint_min=24 / scenecut=40 / intra_refresh=0 / rc=2pass / mbtree=0 / bitrate=12000 / ratetol=1.0 / qcomp=0.70 / qpmin=0 / qpmax=69 / qpstep=4 / cplxblur=20.0 / qblur=0.5 / ip_ratio=1.20 / pb_ratio=1.20 / aq=3:0.80
Default                                  : Да
Forced                                   : Нет

Аудио #1
Идентификатор                            : 2
Формат                                   : AC-3
Формат/Информация                        : Audio Coding 3
Идентификатор кодека                     : A_AC3
Продолжительность                        : 1 ч. 41 м.
Вид битрейта                             : Постоянный
Битрейт                                  : 192 Кбит/сек
Каналы                                   : 2 канала
Расположение каналов                     : Front: L R
Частота                                  : 48,0 КГц
Частота кадров                           : 31,250 кадров/сек (1536 SPF)
Битовая глубина                          : 16 бит
Метод сжатия                             : С потерями
Размер потока                            : 140 Мбайт (1%)
Язык                                     : Ukrainian
ServiceKind/String                       : Complete Main
Default                                  : Да
Forced                                   : Нет

Аудио #2
Идентификатор                            : 3
Формат                                   : DTS
Формат/Информация                        : Digital Theater Systems
Идентификатор кодека                     : A_DTS
Продолжительность                        : 1 ч. 41 м.
Вид битрейта                             : Постоянный
Битрейт                                  : 1509 Кбит/сек
Каналы                                   : 6 каналов
Расположение каналов                     : Front: L C R, Side: L R, LFE
Частота                                  : 48,0 КГц
Частота кадров                           : 93,750 кадра/сек (512 SPF)
Битовая глубина                          : 24 бит
Метод сжатия                             : С потерями
Размер потока                            : 1,07 Гбайт (11%)
Язык                                     : English
Default                                  : Нет
Forced                                   : Нет

Текст
Идентификатор                            : 4
Формат                                   : UTF-8
Идентификатор кодека                     : S_TEXT/UTF8
Идентификатор кодека/Информация          : UTF-8 Plain Text
Продолжительность                        : 1 ч. 34 м.
Битрейт                                  : 93 бит/сек
ElementCount                             : 2073
Размер потока                            : 64,5 Кбайт (0%)
Язык                                     : English
Default                                  : Нет
Forced                                   : Нет

Меню
00:00:00.000                             : en:00:00:00.000
00:02:50.087                             : en:00:02:50.087
00:10:02.143                             : en:00:10:02.143
00:14:50.139                             : en:00:14:50.139
00:22:11.956                             : en:00:22:11.956
00:26:09.109                             : en:00:26:09.109
00:32:02.963                             : en:00:32:02.963
00:35:18.450                             : en:00:35:18.450
00:40:06.529                             : en:00:40:06.529
00:44:33.546                             : en:00:44:33.546
00:49:58.245                             : en:00:49:58.245
00:55:14.770                             : en:00:55:14.770
00:59:26.521                             : en:00:59:26.521
01:05:34.472                             : en:01:05:34.472
01:10:20.633                             : en:01:10:20.633
01:15:47.001                             : en:01:15:47.001
01:22:48.213                             : en:01:22:48.213
01:26:38.819                             : en:01:26:38.819
01:31:15.970                             : en:01:31:15.970
01:34:08.560                             : en:01:34:08.560



Скрыт Profile PM
Показать сообщения:    
Ответить на тему

Текущее время: 18-Июл 20:44

Часовой пояс: GMT + 3



Вы не можете начинать темы
Вы не можете отвечать на сообщения
Вы не можете редактировать свои сообщения
Вы не можете удалять свои сообщения
Вы не можете голосовать в опросах
Вы не можете прикреплять файлы к сообщениям
Вы не можете скачивать файлы
Рейтинг торрент трекеров - UpTracker.ru Анализ веб сайта Яндекс.Метрика
службы мониторинга серверов