Loading...
Error

Нация убийц / Assassination Nation (Сэм Левинсон) [2018 г., Триллер, драма, комедия, криминал, BDRip] MVO [HDrezka Studio]

Ответить на тему
 
Автор Сообщение

Theseus

Стаж: 9 лет 3 месяца

Сообщений: 4788

Режим только чтение: НЕТ

post 10-Янв-2019 13:59

Quote

Нация убийц / Assassination Nation

Год выхода: 2018
Страна: США
Жанр: Триллер, драма, комедия, криминал
Продолжительность: 01:47:59
Перевод: Профессиональный, многоголосый, закадровый | HDrezka Studio
Субтитры: Отсутствуют
Режиссер: Сэм Левинсон
В ролях: Одесса Янг, Хари Неф, Сьюки Уотерхаус, Абра, Колман Доминго, Билл Скарсгард, Джоэл МакХэйл, Аника Нони Роуз, Белла Торн
О фильме: Селфи, эмоджи, снэпчаты и секстинг — вот в чем хороши старшеклассница Лили и ее лучшие подруги, живущие в мире бесконечных угарных вечеринок, интриг и секса без обязательств. Но, когда в результате хакерской атаки в открытый доступ выливаются тонны грязи и компромата, именно их делают крайними. Тихий городок Салем погружается в пучину кровавой анархии, и выжить здесь можно только убивая на опережение….

Качество: BDRip
Формат: AVI
Видео кодек: XviD
Аудио кодек: AC3
Видео: MPEG4, XviD, 720x304 (2.35:1), 23.976 fps, 1478 kb/s
Аудио 1: AC-3, 48.0 KHz, 2 ch, 192 Kbps | RUS
Аудио 2: AC-3, 48.0 KHz, 6 ch, 256 Kbps | ENG

Без рекламы!

Код:

Общее
Полное имя                               : Assassination.Nation.2018.BDRip.1.46Gb.MVO.MegaPeer.avi
Формат                                   : AVI
Формат/Информация                        : Audio Video Interleave
Размер файла                             : 1,46 Гбайт
Продолжительность                        : 1 ч. 47 м.
Общий поток                              : 1940 Кбит/сек
Программа кодирования                    : VirtualDubMod 1.5.10.3 || (build 2550/release)
Библиотека кодирования                   : VirtualDubMod build 2550/release

Видео
Идентификатор                            : 0
Формат                                   : MPEG-4 Visual
Профиль формата                          : Advanced Simple@L5
Настройки формата                        : BVOP1 / Custom Matrix
Параметр BVOP формата                    : 1
Параметр QPel формата                    : Нет
Параметр GMC формата                     : Без точки перехода
Параметр матрицы формата                 : Выборочная
Идентификатор кодека                     : XVID
Идентификатор кодека/Подсказка           : XviD
Продолжительность                        : 1 ч. 47 м.
Битрейт                                  : 1478 Кбит/сек
Ширина                                   : 720 пикселей
Высота                                   : 304 пикселя
Соотношение сторон                       : 2,35:1
Частота кадров                           : 23,976 (24000/1001) кадра/сек
Цветовое пространство                    : YUV
Субдискретизация насыщенности            : 4:2:0
Битовая глубина                          : 8 бит
Тип развёртки                            : Прогрессивная
Метод сжатия                             : С потерями
Бит/(Пиксели*Кадры)                      : 0.282
Размер потока                            : 1,11 Гбайт (76%)
Библиотека кодирования                   : XviD 73

Аудио #1
Идентификатор                            : 1
Формат                                   : AC-3
Формат/Информация                        : Audio Coding 3
Коммерческое название                    : Dolby Digital
Идентификатор кодека                     : 2000
Продолжительность                        : 1 ч. 47 м.
Вид битрейта                             : Постоянный
Битрейт                                  : 192 Кбит/сек
Каналы                                   : 2 канала
Channel layout                           : L R
Частота                                  : 48,0 КГц
Частота кадров                           : 31,250 кадров/сек (1536 SPF)
Битовая глубина                          : 16 бит
Метод сжатия                             : С потерями
Размер потока                            : 148 Мбайт (10%)
Выравнивание                             : Разделение по промежуткам
Продолжительность промежутка             : 42  мс. (1,00 видеокадр)
Время предзагрузки промежутка            : 500  мс.
ServiceKind/String                       : Complete Main

Аудио #2
Идентификатор                            : 2
Формат                                   : AC-3
Формат/Информация                        : Audio Coding 3
Коммерческое название                    : Dolby Digital
Идентификатор кодека                     : 2000
Продолжительность                        : 1 ч. 47 м.
Вид битрейта                             : Постоянный
Битрейт                                  : 256 Кбит/сек
Каналы                                   : 6 каналов
Channel layout                           : L R C LFE Ls Rs
Частота                                  : 48,0 КГц
Частота кадров                           : 31,250 кадров/сек (1536 SPF)
Битовая глубина                          : 16 бит
Метод сжатия                             : С потерями
Размер потока                            : 198 Мбайт (13%)
Выравнивание                             : Разделение по промежуткам
Продолжительность промежутка             : 42  мс. (1,00 видеокадр)
Время предзагрузки промежутка            : 500  мс.
ServiceKind/String                       : Complete Main



Скрыт Profile PM
Показать сообщения:    
Ответить на тему

Текущее время: 17-Янв 12:48

Часовой пояс: GMT + 3



Вы не можете начинать темы
Вы не можете отвечать на сообщения
Вы не можете редактировать свои сообщения
Вы не можете удалять свои сообщения
Вы не можете голосовать в опросах
Вы не можете прикреплять файлы к сообщениям
Вы не можете скачивать файлы
Рейтинг торрент трекеров - UpTracker.ru Анализ веб сайта Яндекс.Метрика
службы мониторинга серверов