Loading...
Error

Нация убийц / Assassination Nation (Сэм Левинсон) [2018 г., Триллер, драма, комедия, криминал, BDRip 1080p] [HEVC] | MVO (HDrezka Studio)

Ответить на тему
 
Автор Сообщение

Theseus

Стаж: 9 лет 3 месяца

Сообщений: 4788

Режим только чтение: НЕТ

post 10-Янв-2019 14:02

Quote

Нация убийц / Assassination Nation

Год выхода: 2018
Страна: США
Жанр: Триллер, драма, комедия, криминал
Продолжительность: 01:47:59
Перевод: Профессиональный, многоголосый, закадровый | HDrezka Studio
Субтитры: Английские
Режиссер: Сэм Левинсон
В ролях: Одесса Янг, Хари Неф, Сьюки Уотерхаус, Абра, Колман Доминго, Билл Скарсгард, Джоэл МакХэйл, Аника Нони Роуз, Белла Торн
О фильме: Селфи, эмоджи, снэпчаты и секстинг — вот в чем хороши старшеклассница Лили и ее лучшие подруги, живущие в мире бесконечных угарных вечеринок, интриг и секса без обязательств. Но, когда в результате хакерской атаки в открытый доступ выливаются тонны грязи и компромата, именно их делают крайними. Тихий городок Салем погружается в пучину кровавой анархии, и выжить здесь можно только убивая на опережение….

Качество: BDRip 1080p
Формат: MKV
Видео кодек: H.265
Аудио кодек: AC3, DTS
Видео: HEVC, 1920x800 (2.40:1), 23.976 fps, 5 821 Kbps
Аудио 1: AC-3, 48.0 KHz, 2 ch, 192 Kbps | RUS [MVO, HDrezka Studio]
Аудио 2: AC-3, 48.0 KHz, 2 ch, 192 Kbps | UKR [DUB, AAA-Sound]
Аудио 3: DTS, 48.0 kHz, 6 ch, 1 509 kb/s | ENG

Без рекламы!

Сэмпл

Код:

General
Unique ID                                : 189201330453317255278684869049971902002 (0x8E56D9CCF77EC6C9ABD1EB9DA6340632)
Complete name                            : Assassination.Nation.2018.BDRip.1080p.HEVC.mkv
Format                                   : Matroska
Format version                           : Version 4
File size                                : 5.83 GiB
Duration                                 : 1 h 47 min
Overall bit rate                         : 7 727 kb/s
Encoded date                             : UTC 2019-01-02 17:22:56
Writing application                      : mkvmerge v8.3.0 ('Over the Horizon') 64bit
Writing library                          : libebml v1.3.1 + libmatroska v1.4.2

Video
ID                                       : 1
Format                                   : HEVC
Format/Info                              : High Efficiency Video Coding
Format profile                           : Main 10@L4.1@High
Codec ID                                 : V_MPEGH/ISO/HEVC
Duration                                 : 1 h 47 min
Bit rate                                 : 5 821 kb/s
Width                                    : 1 920 pixels
Height                                   : 800 pixels
Display aspect ratio                     : 2.40:1
Frame rate mode                          : Constant
Frame rate                               : 23.976 (24000/1001) FPS
Color space                              : YUV
Chroma subsampling                       : 4:2:0
Bit depth                                : 10 bits
Bits/(Pixel*Frame)                       : 0.158
Stream size                              : 4.39 GiB (75%)
Writing library                          : x265 2.9+2-7e978ed93d60:[Windows][GCC 8.2.0][64 bit] 10bit
Encoding settings                        : cpuid=1111039 / frame-threads=4 / numa-pools=14,14 / wpp / pmode / no-pme / no-psnr / no-ssim / log-level=2 / input-csp=1 / input-res=1920x800 / interlace=0 / total-frames=155353 / level-idc=41 / high-tier=1 / uhd-bd=0 / ref=3 / no-allow-non-conformance / no-repeat-headers / annexb / no-aud / no-hrd / info / hash=0 / no-temporal-layers / open-gop / min-keyint=23 / keyint=240 / gop-lookahead=0 / bframes=4 / b-adapt=2 / b-pyramid / bframe-bias=0 / rc-lookahead=20 / lookahead-slices=5 / scenecut=40 / radl=0 / no-intra-refresh / ctu=32 / min-cu-size=8 / no-rect / no-amp / max-tu-size=32 / tu-inter-depth=1 / tu-intra-depth=1 / limit-tu=0 / rdoq-level=0 / dynamic-rd=0.00 / no-ssim-rd / signhide / no-tskip / nr-intra=0 / nr-inter=0 / no-constrained-intra / no-strong-intra-smoothing / max-merge=2 / limit-refs=0 / no-limit-modes / me=2 / subme=5 / merange=32 / temporal-mvp / weightp / no-weightb / no-analyze-src-pics / deblock=-3:-3 / no-sao / no-sao-non-deblock / rd=3 / no-early-skip / rskip / no-fast-intra / no-tskip-fast / no-cu-lossless / no-b-intra / no-splitrd-skip / rdpenalty=0 / psy-rd=2.00 / psy-rdoq=0.00 / no-rd-refine / no-lossless / cbqpoffs=0 / crqpoffs=0 / rc=crf / crf=18.0 / qcomp=0.60 / qpstep=4 / stats-write=0 / stats-read=0 / vbv-maxrate=50000 / vbv-bufsize=50000 / vbv-init=0.9 / crf-max=0.0 / crf-min=0.0 / ipratio=1.40 / pbratio=1.30 / aq-mode=1 / aq-strength=1.00 / cutree / zone-count=0 / no-strict-cbr / qg-size=32 / no-rc-grain / qpmax=69 / qpmin=0 / no-const-vbv / sar=0 / overscan=0 / videoformat=5 / range=0 / colorprim=1 / transfer=1 / colormatrix=1 / chromaloc=0 / display-window=0 / max-cll=0,0 / min-luma=0 / max-luma=1023 / log2-max-poc-lsb=8 / vui-timing-info / vui-hrd-info / slices=1 / no-opt-qp-pps / no-opt-ref-list-length-pps / no-multi-pass-opt-rps / scenecut-bias=0.05 / no-opt-cu-delta-qp / no-aq-motion / no-hdr / no-hdr-opt / no-dhdr10-opt / no-idr-recovery-sei / analysis-reuse-level=5 / scale-factor=0 / refine-intra=0 / refine-inter=0 / refine-mv=0 / no-limit-sao / ctu-info=0 / no-lowpass-dct / refine-mv-type=0 / copy-pic=1 / max-ausize-factor=1.0 / no-dynamic-refine / no-single-sei
Language                                 : English
Default                                  : Yes
Forced                                   : No
Color range                              : Limited
Color primaries                          : BT.709
Transfer characteristics                 : BT.709
Matrix coefficients                      : BT.709

Audio #1
ID                                       : 2
Format                                   : AC-3
Format/Info                              : Audio Coding 3
Commercial name                          : Dolby Digital
Codec ID                                 : A_AC3
Duration                                 : 1 h 47 min
Bit rate mode                            : Constant
Bit rate                                 : 192 kb/s
Channel(s)                               : 2 channels
Channel layout                           : L R
Sampling rate                            : 48.0 kHz
Frame rate                               : 31.250 FPS (1536 SPF)
Bit depth                                : 16 bits
Compression mode                         : Lossy
Stream size                              : 148 MiB (2%)
Title                                    : HDrezka Studio
Language                                 : Russian
Service kind                             : Complete Main
Default                                  : Yes
Forced                                   : No

Audio #2
ID                                       : 3
Format                                   : AC-3
Format/Info                              : Audio Coding 3
Commercial name                          : Dolby Digital
Codec ID                                 : A_AC3
Duration                                 : 1 h 47 min
Bit rate mode                            : Constant
Bit rate                                 : 192 kb/s
Channel(s)                               : 2 channels
Channel layout                           : L R
Sampling rate                            : 48.0 kHz
Frame rate                               : 31.250 FPS (1536 SPF)
Bit depth                                : 16 bits
Compression mode                         : Lossy
Stream size                              : 148 MiB (2%)
Title                                    : AAA-Sound
Language                                 : Ukrainian
Service kind                             : Complete Main
Default                                  : No
Forced                                   : No

Audio #3
ID                                       : 4
Format                                   : DTS
Format/Info                              : Digital Theater Systems
Codec ID                                 : A_DTS
Duration                                 : 1 h 47 min
Bit rate mode                            : Constant
Bit rate                                 : 1 509 kb/s
Channel(s)                               : 6 channels
Channel layout                           : C L R Ls Rs LFE
Sampling rate                            : 48.0 kHz
Frame rate                               : 93.750 FPS (512 SPF)
Bit depth                                : 24 bits
Compression mode                         : Lossy
Stream size                              : 1.14 GiB (20%)
Language                                 : English
Default                                  : No
Forced                                   : No

Text
ID                                       : 5
Format                                   : PGS
Muxing mode                              : zlib
Codec ID                                 : S_HDMV/PGS
Codec ID/Info                            : Picture based subtitle format used on BDs/HD-DVDs
Duration                                 : 1 h 46 min
Bit rate                                 : 10.8 kb/s
Count of elements                        : 3188
Stream size                              : 8.22 MiB (0%)
Language                                 : English
Default                                  : Yes
Forced                                   : No

Menu
00:00:00.000                             : :Chapter 01
00:22:06.366                             : :Chapter 02
00:43:51.712                             : :Chapter 03
01:01:11.334                             : :Chapter 04
01:16:31.169                             : :Chapter 05
01:21:47.694                             : :Chapter 06
01:28:27.135                             : :Chapter 07
01:39:32.883                             : :Chapter 08



Скрыт Profile PM
Показать сообщения:    
Ответить на тему

Текущее время: 17-Янв 12:47

Часовой пояс: GMT + 3



Вы не можете начинать темы
Вы не можете отвечать на сообщения
Вы не можете редактировать свои сообщения
Вы не можете удалять свои сообщения
Вы не можете голосовать в опросах
Вы не можете прикреплять файлы к сообщениям
Вы не можете скачивать файлы
Рейтинг торрент трекеров - UpTracker.ru Анализ веб сайта Яндекс.Метрика
службы мониторинга серверов