Loading...
Error

Агент Джонни Инглиш 3.0 / Johnny English Strikes Again (Дэвид Керр) [2018 г., Боевик, Комедия, Приключения, BDRemux] | DUB (iTunes)

Ответить на тему
 
Автор Сообщение

Theseus

Стаж: 9 лет 3 месяца

Сообщений: 4788

Режим только чтение: НЕТ

post 10-Янв-2019 14:07

Quote

Агент Джонни Инглиш 3.0 / Johnny English Strikes Again

Год выхода: 2018
Страна: Великобритания, Франция, США
Жанр: Боевик, Комедия, Приключения
Продолжительность: 01:28:33
Перевод: Профессиональный (полное дублирование) [iTunes]
Субтитры: Английские
Режиссер: Дэвид Керр
В ролях: Эмма Томпсон, Ольга Куриленко, Роуэн Аткинсон, Джейк Лэси, Бен Миллер, Миранда Хеннесси, Адам Джеймс, Пиппа Беннетт-Уорнер, Ирена Тишина, Джеймс Илс
О фильме: Когда все агенты секретной службы Её Величества внезапно выходят из строя, в игру вступает запасной вариант. Образец английского стиля и любимец роковых красоток; король безвыходных ситуаций и хранитель аналоговых традиций в цифровом мире, агент Джонни Инглиш — боль и гордость британской разведки. Этому парню есть что взбалтывать, и он взболтает не по-детски.


Качество: BDRemux
Контейнер: MKV
Видео кодек: H.264
Аудио кодек: AC3, DTS-HD MA
Видео: MPEG-4 AVC, 1920x1080, 23.976 fps, 26,5 Mbps
Аудио 1: 48 kHz, AC3, 6 ch, 384 kbps | Rus
Аудио 2: 48 kHz, DTS-HD MA, 8 ch, 5909 kbps | Eng

General
Unique ID : 291454650237719178692587017786464656214 (0xDB441FB37A78FBB75A67D242CB9FDB56)
Complete name : Johnny.English.Strikes.Again.2018.BDREMUX.1080p.seleZen.mkv
Format : Matroska
Format version : Version 4
File size : 20.3 GiB
Duration : 1 h 28 min
Overall bit rate mode : Variable
Overall bit rate : 32.8 Mb/s
Movie name : Johnny English Strikes Again 2018 from селезень
Encoded date : UTC 2019-01-10 05:50:31
Writing application : mkvmerge v29.0.0 ('Like It Or Not') 64-bit
Writing library : libebml v1.3.6 + libmatroska v1.4.9

Video
ID : 1
Format : AVC
Format/Info : Advanced Video Codec
Format profile : High@L4.1
Format settings : CABAC / 4 Ref Frames
Format settings, CABAC : Yes
Format settings, ReFrames : 4 frames
Codec ID : V_MPEG4/ISO/AVC
Duration : 1 h 28 min
Bit rate mode : Variable
Bit rate : 26.5 Mb/s
Maximum bit rate : 29.0 Mb/s
Width : 1 920 pixels
Height : 1 080 pixels
Display aspect ratio : 16:9
Frame rate mode : Constant
Frame rate : 23.976 (24000/1001) FPS
Color space : YUV
Chroma subsampling : 4:2:0
Bit depth : 8 bits
Scan type : Progressive
Bits/(Pixel*Frame) : 0.533
Stream size : 16.4 GiB (81%)
Default : Yes
Forced : No

Audio #1
ID : 2
Format : AC-3
Format/Info : Audio Coding 3
Commercial name : Dolby Digital
Codec ID : A_AC3
Duration : 1 h 28 min
Bit rate mode : Constant
Bit rate : 384 kb/s
Channel(s) : 6 channels
Channel layout : L R C LFE Ls Rs
Sampling rate : 48.0 kHz
Frame rate : 31.250 FPS (1536 SPF)
Bit depth : 16 bits
Compression mode : Lossy
Stream size : 243 MiB (1%)
Title : iTunes
Language : Russian
Service kind : Complete Main
Default : Yes
Forced : Yes

Audio #2
ID : 3
Format : DTS XLL X
Format/Info : Digital Theater Systems
Commercial name : DTS-HD Master Audio
Codec ID : A_DTS
Duration : 1 h 28 min
Bit rate mode : Variable
Bit rate : 5 909 kb/s
Channel(s) : 8 channels
Channel(s)_Original : Object Based
Channel layout : Object Based
Sampling rate : 48.0 kHz
Frame rate : 93.750 FPS (512 SPF)
Bit depth : 24 bits
Stream size : 3.66 GiB (18%)
Title : Original
Language : English
Default : No
Forced : No

Text
ID : 4
Format : UTF-8
Codec ID : S_TEXT/UTF8
Codec ID/Info : UTF-8 Plain Text
Duration : 1 h 22 min
Bit rate : 56 b/s
Count of elements : 1022
Stream size : 34.3 KiB (0%)
Title : Full
Language : English
Default : No
Forced : No

Menu
00:00:00.000 : :Chapter 01
00:05:06.681 : :Chapter 02
00:09:05.378 : :Chapter 03
00:13:14.794 : :Chapter 04
00:19:22.369 : :Chapter 05
00:21:31.832 : :Chapter 06
00:26:41.975 : :Chapter 07
00:32:31.240 : :Chapter 08
00:34:48.086 : :Chapter 09
00:39:49.428 : :Chapter 10
00:45:49.121 : :Chapter 11
00:51:22.204 : :Chapter 12
00:54:31.851 : :Chapter 13
00:58:58.201 : :Chapter 14
01:02:58.441 : :Chapter 15
01:08:21.597 : :Chapter 16
01:11:40.963 : :Chapter 17
01:15:03.415 : :Chapter 18
01:20:54.808 : :Chapter 19
01:23:52.527 : :Chapter 20



Скрыт Profile PM
Показать сообщения:    
Ответить на тему

Текущее время: 17-Янв 12:48

Часовой пояс: GMT + 3



Вы не можете начинать темы
Вы не можете отвечать на сообщения
Вы не можете редактировать свои сообщения
Вы не можете удалять свои сообщения
Вы не можете голосовать в опросах
Вы не можете прикреплять файлы к сообщениям
Вы не можете скачивать файлы
Рейтинг торрент трекеров - UpTracker.ru Анализ веб сайта Яндекс.Метрика
службы мониторинга серверов