Loading...
Error

Колетт / Colette (Уош Уэстмоленд) [2018 г., Драма, биография, история, BDRip 720p] | DUB (iTunes)

Ответить на тему
 
Автор Сообщение

Theseus

Стаж: 9 лет 7 месяцев

Сообщений: 4834

Режим только чтение: НЕТ

post 21-Янв-2019 23:00

Quote

Колетт / Colette

Год выхода: 2018
Страна: Великобритания, США
Жанр: Драма, биография, история
Продолжительность: 01:52:03
Перевод: Профессиональный (полное дублирование) [iTunes]
Субтитры: Русские, английские
Режиссер: Уош Уэстмоленд
В ролях: Кира Найтли, Элинор Томлинсон, Доминик Уэст, Фиона Шоу, Аийша Харт, Денис Гоф, Аль Уивер, Дики Бо, Роберт Пью, Кэролайн Болтон
О фильме: Яркая и талантливая Колетт пишет гениальные произведения, которые ее муж Вилли, посредственный писатель, выдает за свои. Книги становятся бестселлерами, а богемная пара превращается в сенсацию высшего света Парижа. Но когда Вилли пытается заставить Колетт написать еще один роман, она начинает борьбу за творческую свободу, бросая вызов общественным понятиям о литературе, моде и сексуальности.

Качество: BDRip 720p
Формат: MKV
Видео кодек: x.264
Аудио кодек: AC3
Видео: 1280x534 (2.40:1), 23,976 fps, x264, 4531 kbps
Аудио 1: 48 kHz, AC3, 6 ch, 384.00 kbps avg | RUS (iTunes)
Аудио 2: 48 kHz, AC3, 6 ch, 448.00 kbps avg | ENG

General
Уникальный идентификатор : 175104854798534260996950935406232379109 (0x83BBF7E43D4C899482ED4F9E96629EE5)
Полное имя : ColetteBDRip720p.mkv
Формат : Matroska
Версия формата : Version 4 / Version 2
Размер файла : 4.19 GiB
Продолжительность : 1 h 52 min
Общий поток : 5 356 kb/s
Дата кодирования : UTC 2019-01-21 03:07:17
Программа кодирования : mkvmerge v9.5.0 ('Quiet Fire') 64bit
Библиотека кодирования : libebml v1.3.4 + libmatroska v1.4.5

Video
Идентификатор : 1
Формат : AVC
Формат/Информация : Advanced Video Codec
Профиль формата : High@L4.1
Настройки формата : CABAC / 12 Ref Frames
Параметр CABAC формата : Yes
Параметр RefFrames формата : 12 frames
Идентификатор кодека : V_MPEG4/ISO/AVC
Продолжительность : 1 h 52 min
Битрейт : 4 531 kb/s
Ширина : 1 280 pixels
Высота : 534 pixels
Соотношение сторон : 2.40:1
Режим частоты кадров : Constant
Частота кадров : 23.976 (24000/1001) FPS
Цветовое пространство : YUV
Субдискретизация насыщенности : 4:2:0
Битовая глубина : 8 bits
Тип развёртки : Progressive
Бит/(Пиксели*Кадры) : 0.276
Размер потока : 3.54 GiB (84%)
Библиотека кодирования : x264 core 157 r2935 545de2f
Настройки программы : cabac=1 / ref=12 / deblock=1:-1:-1 / analyse=0x3:0x133 / me=umh / subme=11 / psy=1 / psy_rd=1.00:0.00 / mixed_ref=1 / me_range=32 / chroma_me=1 / trellis=2 / 8x8dct=1 / cqm=0 / deadzone=21,11 / fast_pskip=0 / chroma_qp_offset=-2 / threads=5 / lookahead_threads=1 / sliced_threads=0 / nr=0 / decimate=0 / interlaced=0 / bluray_compat=0 / constrained_intra=0 / bframes=12 / b_pyramid=2 / b_adapt=2 / b_bias=0 / direct=3 / weightb=1 / open_gop=0 / weightp=2 / keyint=240 / keyint_min=24 / scenecut=40 / intra_refresh=0 / rc_lookahead=120 / rc=2pass / mbtree=0 / bitrate=4531 / ratetol=1.0 / qcomp=0.70 / qpmin=0 / qpmax=69 / qpstep=4 / cplxblur=20.0 / qblur=0.5 / vbv_maxrate=62500 / vbv_bufsize=78125 / nal_hrd=none / filler=0 / ip_ratio=1.40 / pb_ratio=1.30 / aq=3:0.80
Язык : English
Default : Yes
Forced : No

Audio #1
Идентификатор : 2
Формат : AC-3
Формат/Информация : Audio Coding 3
Идентификатор кодека : A_AC3
Продолжительность : 1 h 52 min
Вид битрейта : Constant
Битрейт : 384 kb/s
Каналы : 6 channels
Расположение каналов : Front: L C R, Side: L R, LFE
Частота : 48.0 kHz
Частота кадров : 31.250 FPS (1536 SPF)
Битовая глубина : 16 bits
Метод сжатия : Lossy
Размер потока : 308 MiB (7%)
Язык : Russian
Default : Yes
Forced : No

Audio #2
Идентификатор : 3
Формат : AC-3
Формат/Информация : Audio Coding 3
Идентификатор кодека : A_AC3
Продолжительность : 1 h 52 min
Вид битрейта : Constant
Битрейт : 448 kb/s
Каналы : 6 channels
Расположение каналов : Front: L C R, Side: L R, LFE
Частота : 48.0 kHz
Частота кадров : 31.250 FPS (1536 SPF)
Битовая глубина : 16 bits
Метод сжатия : Lossy
Размер потока : 359 MiB (8%)
Язык : English
Default : No
Forced : No

Text #1
Идентификатор : 4
Формат : UTF-8
Идентификатор кодека : S_TEXT/UTF8
Идентификатор кодека/Информация : UTF-8 Plain Text
Продолжительность : 1 h 43 min
Битрейт : 108 b/s
ElementCount : 1430
Размер потока : 82.4 KiB (0%)
Язык : Russian
Default : No
Forced : No

Text #2
Идентификатор : 5
Формат : UTF-8
Идентификатор кодека : S_TEXT/UTF8
Идентификатор кодека/Информация : UTF-8 Plain Text
Продолжительность : 1 h 42 min
Битрейт : 67 b/s
ElementCount : 1515
Размер потока : 50.7 KiB (0%)
Язык : English
Default : No
Forced : No

Menu
00:00:00.000 : :Chapter 01
00:06:46.155 : :Chapter 02
00:12:25.786 : :Chapter 03
00:18:55.467 : :Chapter 04
00:24:20.834 : :Chapter 05
00:29:14.627 : :Chapter 06
00:36:25.600 : :Chapter 07
00:42:02.895 : :Chapter 08
00:48:34.411 : :Chapter 09
00:52:45.745 : :Chapter 10
00:57:36.411 : :Chapter 11
01:02:17.942 : :Chapter 12
01:09:44.930 : :Chapter 13
01:15:22.017 : :Chapter 14
01:19:53.288 : :Chapter 15
01:23:17.200 : :Chapter 16
01:29:26.611 : :Chapter 17
01:35:05.574 : :Chapter 18
01:41:11.231 : :Chapter 19
01:45:15.267 : :Chapter 20



Скрыт Profile PM
Показать сообщения:    
Ответить на тему

Текущее время: 21-Апр 06:00

Часовой пояс: GMT + 3



Вы не можете начинать темы
Вы не можете отвечать на сообщения
Вы не можете редактировать свои сообщения
Вы не можете удалять свои сообщения
Вы не можете голосовать в опросах
Вы не можете прикреплять файлы к сообщениям
Вы не можете скачивать файлы
Рейтинг торрент трекеров - UpTracker.ru Анализ веб сайта Яндекс.Метрика
службы мониторинга серверов