Loading...
Error

Аквамен / Aquaman (Клэй Кэйтис) [2018 г., фантастика, фэнтези, боевик, приключения, WEB-DL 720p] DUB (iTunes) | MVO (HDRezka Studio) | IMAX Edition

Ответить на тему
 
Автор Сообщение

Theseus

Стаж: 9 лет 7 месяцев

Сообщений: 4834

Режим только чтение: НЕТ

post 06-Мар-2019 14:53

Quote

Аквамен / Aquaman

Год выхода: 2018
Страна: США
Жанр: фантастика, фэнтези, боевик, приключения
Продолжительность: 02:23:19
Перевод: Профессиональный (полное дублирование) | iTunes , Профессиональный многоголосый | [HDRezka Studio]
Субтитры: Русские (Forced, full), украинские (Forced), английские
Режиссер: Джеймс Ван
В ролях: Джейсон Момоа, Эмбер Хёрд, Дольф Лундгрен, Николь Кидман, Джули Эндрюс, Патрик Уилсон, Уиллем Дефо, Грэм МакТавиш, Талия Джейд, Джимон Хонсу
О фильме: Действие фильма разворачивается в необъятном и захватывающем подводном мире семи морей, а сюжет знакомит зрителей с историей происхождения получеловека-полуатланта Артура Карри и ключевыми событиями его жизни — теми, что заставят его не только столкнуться с самим собой, но и выяснить, достоин ли он быть тем, кем ему суждено… царем!

Качество: WEB-DL 720p
Формат: MKV
Видео кодек: x.264
Аудио кодек: AC3, AAC
Видео: MPEG4-AVC, 1280x720 (16:9), 23,976 fps, x264, 3992 kbps
Аудио 1: 48 kHz, AC3, 6 ch, 384.00 kbps | RUS (iTunes)
Аудио 2: 48 kHz, AC3, 2 ch, 192.00 kbps | RUS (HDRezka Studio)
Аудио 3: 48 kHz, AAC, 2 ch, 127.00 kbps | UKR
Аудио 4: 48 kHz, AC3, 6 ch, 384.00 kbps | ENG

General
Unique ID : 315412132576237195794835519344448817859 (0xED4A2AC6BF9CA898AC488DF18DDECAC3)
Complete name : Aquaman.2018.WEB-DL.720p.seleZen.mkv
Format : Matroska
Format version : Version 4
File size : 5.09 GiB
Duration : 2 h 23 min
Overall bit rate : 5 082 kb/s
Movie name : Aquaman 2018 from селезень
Encoded date : UTC 2019-03-05 19:38:35
Writing application : mkvmerge v31.0.0 ('Dolores In A Shoestand') 64-bit
Writing library : libebml v1.3.6 + libmatroska v1.4.9

Video
ID : 1
Format : AVC
Format/Info : Advanced Video Codec
Format profile : High@L3.1
Format settings : 2 Ref Frames
Format settings, CABAC : No
Format settings, ReFrames : 2 frames
Codec ID : V_MPEG4/ISO/AVC
Duration : 2 h 23 min
Bit rate : 3 992 kb/s
Width : 1 280 pixels
Height : 720 pixels
Display aspect ratio : 16:9
Frame rate mode : Constant
Frame rate : 23.976 (24000/1001) FPS
Color space : YUV
Chroma subsampling : 4:2:0
Bit depth : 8 bits
Scan type : Progressive
Bits/(Pixel*Frame) : 0.181
Stream size : 4.00 GiB (79%)
Language : English
Default : Yes
Forced : No
Color range : Limited
Color primaries : BT.709
Transfer characteristics : BT.709
Matrix coefficients : BT.709

Audio #1
ID : 2
Format : AC-3
Format/Info : Audio Coding 3
Commercial name : Dolby Digital
Codec ID : A_AC3
Duration : 2 h 23 min
Bit rate mode : Constant
Bit rate : 384 kb/s
Channel(s) : 6 channels
Channel layout : L R C LFE Ls Rs
Sampling rate : 48.0 kHz
Frame rate : 31.250 FPS (1536 SPF)
Bit depth : 16 bits
Compression mode : Lossy
Stream size : 394 MiB (8%)
Title : iTunes
Language : Russian
Service kind : Complete Main
Default : Yes
Forced : Yes

Audio #2
ID : 3
Format : AC-3
Format/Info : Audio Coding 3
Commercial name : Dolby Digital
Codec ID : A_AC3
Duration : 2 h 23 min
Bit rate mode : Constant
Bit rate : 192 kb/s
Channel(s) : 2 channels
Channel layout : L R
Sampling rate : 48.0 kHz
Frame rate : 31.250 FPS (1536 SPF)
Bit depth : 16 bits
Compression mode : Lossy
Stream size : 197 MiB (4%)
Title : MVO [HDRezka Studio]
Language : Russian
Service kind : Complete Main
Default : No
Forced : No

Audio #3
ID : 4
Format : AAC LC
Format/Info : Advanced Audio Codec Low Complexity
Codec ID : A_AAC-2
Duration : 2 h 23 min
Bit rate : 127 kb/s
Channel(s) : 2 channels
Channel layout : L R
Sampling rate : 44.1 kHz
Frame rate : 43.066 FPS (1024 SPF)
Compression mode : Lossy
Stream size : 130 MiB (2%)
Title : iTunes
Language : Ukrainian
Default : No
Forced : No

Audio #4
ID : 5
Format : AC-3
Format/Info : Audio Coding 3
Commercial name : Dolby Digital
Codec ID : A_AC3
Duration : 2 h 23 min
Bit rate mode : Constant
Bit rate : 384 kb/s
Channel(s) : 6 channels
Channel layout : L R C LFE Ls Rs
Sampling rate : 48.0 kHz
Frame rate : 31.250 FPS (1536 SPF)
Bit depth : 16 bits
Compression mode : Lossy
Stream size : 394 MiB (8%)
Title : Original
Language : English
Service kind : Complete Main
Default : No
Forced : No

Text #1
ID : 6
Format : UTF-8
Codec ID : S_TEXT/UTF8
Codec ID/Info : UTF-8 Plain Text
Duration : 2 h 14 min
Bit rate : 1 b/s
Count of elements : 27
Stream size : 1.23 KiB (0%)
Title : Forced
Language : Russian
Default : Yes
Forced : Yes

Text #2
ID : 7
Format : UTF-8
Codec ID : S_TEXT/UTF8
Codec ID/Info : UTF-8 Plain Text
Duration : 2 h 22 min
Bit rate : 55 b/s
Count of elements : 1119
Stream size : 58.0 KiB (0%)
Title : Full
Language : Russian
Default : No
Forced : No

Text #3
ID : 8
Format : UTF-8
Codec ID : S_TEXT/UTF8
Codec ID/Info : UTF-8 Plain Text
Duration : 2 h 22 min
Bit rate : 1 b/s
Count of elements : 32
Stream size : 1.54 KiB (0%)
Title : Forced
Language : Ukrainian
Default : No
Forced : No

Text #4
ID : 9
Format : UTF-8
Codec ID : S_TEXT/UTF8
Codec ID/Info : UTF-8 Plain Text
Duration : 2 h 14 min
Bit rate : 38 b/s
Count of elements : 1132
Stream size : 37.5 KiB (0%)
Language : English
Default : No
Forced : No

Menu
00:00:00.000 : en:1
00:11:08.293 : en:2
00:22:10.621 : en:3
00:30:10.017 : en:4
00:40:27.718 : en:5
00:50:23.647 : en:6
01:01:14.756 : en:7
01:08:56.092 : en:8
01:21:40.272 : en:9
01:34:49.436 : en:10
01:39:36.431 : en:11
01:49:31.818 : en:12
02:01:35.541 : en:13
02:10:18.897 : en:14



Скрыт Profile PM
Показать сообщения:    
Ответить на тему

Текущее время: 22-Апр 19:41

Часовой пояс: GMT + 3



Вы не можете начинать темы
Вы не можете отвечать на сообщения
Вы не можете редактировать свои сообщения
Вы не можете удалять свои сообщения
Вы не можете голосовать в опросах
Вы не можете прикреплять файлы к сообщениям
Вы не можете скачивать файлы
Рейтинг торрент трекеров - UpTracker.ru Анализ веб сайта Яндекс.Метрика
службы мониторинга серверов