Loading...
Error

Аквамен / Aquaman (Клэй Кэйтис) [2018 г., фантастика, фэнтези, боевик, приключения, WEB-DL 1080p] DUB (iTunes) | MVO (HDRezka Studio) | [Open Matte]

Ответить на тему
 
Автор Сообщение

Theseus

Стаж: 9 лет 7 месяцев

Сообщений: 4834

Режим только чтение: НЕТ

post 15-Мар-2019 21:34

Quote

Аквамен / Aquaman

Год выхода: 2018
Страна: США
Жанр: фантастика, фэнтези, боевик, приключения
Продолжительность: 02:23:19
Перевод 1: Профессиональный (полное дублирование) | iTunes
Перевод 2: Профессиональный многоголосый | HDRezka Studio
Перевод 3: Украинский дубляж | iTunes
Субтитры: Русские, украинские, английские
Режиссер: Джеймс Ван
В ролях: Джейсон Момоа, Эмбер Хёрд, Дольф Лундгрен, Николь Кидман, Джули Эндрюс, Патрик Уилсон, Уиллем Дефо, Грэм МакТавиш, Талия Джейд, Джимон Хонсу
О фильме: Действие фильма разворачивается в необъятном и захватывающем подводном мире семи морей, а сюжет знакомит зрителей с историей происхождения получеловека-полуатланта Артура Карри и ключевыми событиями его жизни — теми, что заставят его не только столкнуться с самим собой, но и выяснить, достоин ли он быть тем, кем ему суждено… царем!

Качество: WEB-DL 1080p [Open Matte]
Формат: MKV
Видео кодек: x.264
Аудио кодек: AC3, AAC
Видео: MPEG4-AVC, 1920x1080 (16:9), 23,976 fps, x264, 4901 kbps
Аудио 1: 48 kHz, AC3, 6 ch, 384 kbps | RUS (DUB, iTunes)
Аудио 2: 48 kHz, AC3, 2 ch, 192 kbps | RUS (MVO, HDRezka Studio)
Аудио 3: 44 kHz, AAC, 2 ch, 127 kbps | UKR (DUB, iTunes)
Аудио 4: 48 kHz, E-AC3 + Atmos, 6 ch, 576 kbps | ENG

Сэмпл
Сравнение BD IMAX vs WEB-DL Open Matte
Общее
Уникальный идентификатор : 52005771217695580004838819485567771200 (0x271FF27C26F20BBBCF8B50AD3B016240)
Полное имя : Aquaman.2018.Open.Matte.1080p.WEB-DL.DUB.EniaHD.mkv
Формат : Matroska
Версия формата : Version 4 / Versio
Размер файла : 6,19 Гбайт
Продолжительность : 2 ч. 23 м.
Общий поток : 6183 Кбит/сек
Название фильма : Aquaman / Аквамен (2018) Open Matte
Дата кодирования : UTC 2019-03-09 12:25:41
Программа кодирования : mkvmerge v31.0.0 ('Dolores In A Shoestand') 32-bit
Библиотека кодирования : libebml v1.3.6 + libmatroska v1.4.9
Обложка : Yes
Attachments : cover.jpg

Видео
Идентификатор : 1
Формат : AVC
Формат/Информация : Advanced Video Codec
Профиль формата : High@L4
Настройки формата : CABAC / 4 Ref Frames
Параметр CABAC формата : Да
Параметр RefFrames формата : 4 кадра
Идентификатор кодека : V_MPEG4/ISO/AVC
Продолжительность : 2 ч. 23 м.
Битрейт : 4901 Кбит/сек
Ширина : 1920 пикселей
Высота : 1080 пикселей
Соотношение сторон : 16:9
Режим частоты кадров : Постоянный
Частота кадров : 23,976 (24000/1001) кадра/сек
Цветовое пространство : YUV
Субдискретизация насыщенности : 4:2:0
Битовая глубина : 8 бит
Тип развёртки : Прогрессивная
Бит/(Пиксели*Кадры) : 0.099
Размер потока : 4,91 Гбайт (79%)
Заголовок : Aquaman.2018.Open.Matte.1080p.WEB-DL.DUB.EniaHD
Язык : English
Default : Да
Forced : Нет

Аудио #1
Идентификатор : 2
Формат : AC-3
Формат/Информация : Audio Coding 3
Коммерческое название : Dolby Digital
Идентификатор кодека : A_AC3
Продолжительность : 2 ч. 23 м.
Вид битрейта : Постоянный
Битрейт : 384 Кбит/сек
Каналы : 6 каналов
Channel layout : L R C LFE Ls Rs
Частота : 48,0 КГц
Частота кадров : 31,250 кадров/сек (1536 SPF)
Битовая глубина : 16 бит
Метод сжатия : С потерями
Размер потока : 394 Мбайт (6%)
Заголовок : AC3 5.1 @ 384 kbps - DUB, iTunes
Язык : Russian
ServiceKind/String : Complete Main
Default : Да
Forced : Нет

Аудио #2
Идентификатор : 3
Формат : AC-3
Формат/Информация : Audio Coding 3
Коммерческое название : Dolby Digital
Идентификатор кодека : A_AC3
Продолжительность : 2 ч. 23 м.
Вид битрейта : Постоянный
Битрейт : 192 Кбит/сек
Каналы : 2 канала
Channel layout : L R
Частота : 48,0 КГц
Частота кадров : 31,250 кадров/сек (1536 SPF)
Битовая глубина : 16 бит
Метод сжатия : С потерями
Размер потока : 197 Мбайт (3%)
Заголовок : AC3 2.0 @ 192 kbps - MVO, HDRezka Studio
Язык : Russian
ServiceKind/String : Complete Main
Default : Нет
Forced : Нет

Аудио #3
Идентификатор : 4
Формат : AAC LC
Формат/Информация : Advanced Audio Codec Low Complexity
Идентификатор кодека : A_AAC-2
Продолжительность : 2 ч. 23 м.
Битрейт : 127 Кбит/сек
Каналы : 2 канала
Channel layout : L R
Частота : 44,1 КГц
Частота кадров : 43,066 кадра/сек (1024 SPF)
Метод сжатия : С потерями
Размер потока : 130 Мбайт (2%)
Заголовок : AAC 2.0 @ 128 kbps - DUB, iTunes
Язык : Ukrainian
Default : Нет
Forced : Нет

Аудио #4
Идентификатор : 5
Формат : E-AC-3 JOC
Формат/Информация : Enhanced AC-3 with Joint Object Coding
Коммерческое название : Dolby Digital Plus with Dolby Atmos
Идентификатор кодека : A_EAC3
Продолжительность : 2 ч. 23 м.
Вид битрейта : Постоянный
Битрейт : 576 Кбит/сек
Каналы : 6 каналов
Channel layout : L R C LFE Ls Rs
Частота : 48,0 КГц
Частота кадров : 31,250 кадров/сек (1536 SPF)
Метод сжатия : С потерями
Размер потока : 590 Мбайт (9%)
Заголовок : E-AC3 EX + Atmos 5.1 @ 576 kbps - Original
Язык : English
ServiceKind/String : Complete Main
Default : Нет
Forced : Нет
Complexity index : 16
Number of dynamic objects : 15
Bed channel count : 1 канал
Bed channel configuration : LFE

Текст #1
Идентификатор : 6
Формат : UTF-8
Идентификатор кодека : S_TEXT/UTF8
Идентификатор кодека/Информация : UTF-8 Plain Text
Продолжительность : 2 ч. 14 м.
Битрейт : 1 бит/сек
ElementCount : 27
Размер потока : 1,23 Кбайт (0%)
Заголовок : Forced
Язык : Russian
Default : Да
Forced : Да

Текст #2
Идентификатор : 7
Формат : UTF-8
Идентификатор кодека : S_TEXT/UTF8
Идентификатор кодека/Информация : UTF-8 Plain Text
Продолжительность : 2 ч. 22 м.
Битрейт : 55 бит/сек
ElementCount : 1119
Размер потока : 58,0 Кбайт (0%)
Заголовок : Full
Язык : Russian
Default : Нет
Forced : Нет

Текст #3
Идентификатор : 8
Формат : UTF-8
Идентификатор кодека : S_TEXT/UTF8
Идентификатор кодека/Информация : UTF-8 Plain Text
Продолжительность : 2 ч. 22 м.
Битрейт : 1 бит/сек
ElementCount : 32
Размер потока : 1,54 Кбайт (0%)
Заголовок : Forced
Язык : Ukrainian
Default : Нет
Forced : Нет

Текст #4
Идентификатор : 9
Формат : UTF-8
Идентификатор кодека : S_TEXT/UTF8
Идентификатор кодека/Информация : UTF-8 Plain Text
Продолжительность : 2 ч. 14 м.
Битрейт : 38 бит/сек
ElementCount : 1132
Размер потока : 37,5 Кбайт (0%)
Заголовок : Full SDH
Язык : English
Default : Нет
Forced : Нет

Меню
00:00:00.000 : en:1
00:11:07.293 : en:2
00:22:09.621 : en:3
00:30:09.017 : en:4
00:40:26.718 : en:5
00:50:22.647 : en:6
01:01:13.756 : en:7
01:08:55.092 : en:8
01:21:39.272 : en:9
01:34:48.436 : en:10
01:39:35.431 : en:11
01:49:30.818 : en:12
02:01:34.541 : en:13
02:10:17.897 : en:14



Скрыт Profile PM
Показать сообщения:    
Ответить на тему

Текущее время: 22-Апр 19:40

Часовой пояс: GMT + 3



Вы не можете начинать темы
Вы не можете отвечать на сообщения
Вы не можете редактировать свои сообщения
Вы не можете удалять свои сообщения
Вы не можете голосовать в опросах
Вы не можете прикреплять файлы к сообщениям
Вы не можете скачивать файлы
Рейтинг торрент трекеров - UpTracker.ru Анализ веб сайта Яндекс.Метрика
службы мониторинга серверов