Loading...
Error

Форсаж: Хоббс и Шоу / Fast & Furious Presents: Hobbs & Shaw (Дэвид Литч) [2019 г., Боевик, приключения, WEB-DL 1080p] DUB (iTunes)

Ответить на тему
 
Автор Сообщение

Theseus

Стаж: 10 лет

Сообщений: 5013

Режим только чтение: НЕТ

post 30-Сен-2019 14:29

Quote

Форсаж: Хоббс и Шоу / Fast & Furious Presents: Hobbs & Shaw

Год выхода: 2019
Страна: Великобритания, США
Жанр: Боевик, приключения
Продолжительность: 02:15:51
Перевод: Профессиональный дублированный | iTunes
Субтитры: Русские (форс. хардсаб), английские
Режиссер: Дэвид Литч
В ролях: Дуэйн Джонсон, Джейсон Стэйтем, Идрис Эльба, Ванесса Кирби, Хелен Миррен, Эйса Гонсалес, Эдди Марсан, Элиана Суа, Клифф Кёртис, Лори Пеленис Туисано
О фильме: Люк Хоббс — американский элитный спецагент, он любит удобную спортивную одежду, большие пикапы и здоровое питание. Декард Шоу — британский пижон, бывший сотрудник разведки, предпочитает дорогие костюмы, спортивные авто и пабы.
Эти двое терпеть друг друга не могут. Но если кто-то угрожает их семьям, они готовы пойти на всё. Даже на работу в команде.

Качество: WEB-DL 1080p
Формат: MKV
Видео кодек: x.264
Аудио кодек: AC3
Видео: MPEG-4 AVC, 1920x800 (2.40:1), 23.976 fps, 10,8 Mbps
Аудио 1: 48 kHz, AC3, 6 ch, 384 Kbps | RUS
Аудио 2: 48 kHz, AC3, 2 ch, 384 Kbps | ENG
General
Unique ID : 153724942447422029475082601580542103328 (0x73A658D410E17ACAAA31DB54F6C50F20)
Complete name : Fast.and.Furious.Presents.Hobbs.and.Shaw.2019.WEB-DL.1080p.seleZen.mkv
Format : Matroska
Format version : Version 4
File size : 10.9 GiB
Duration : 2 h 15 min
Overall bit rate : 11.5 Mb/s
Movie name : Fast and Furious Presents Hobbs and Shaw 2019 from селезень
Encoded date : UTC 2019-09-27 20:27:13
Writing application : mkvmerge v28.0.0 ('Voice In My Head') 64-bit
Writing library : libebml v1.3.6 + libmatroska v1.4.9

Video
ID : 1
Format : AVC
Format/Info : Advanced Video Codec
Format profile : High@L4.1
Format settings : CABAC / 4 Ref Frames
Format settings, CABAC : Yes
Format settings, Reference : 4 frames
Codec ID : V_MPEG4/ISO/AVC
Duration : 2 h 15 min
Bit rate : 10.8 Mb/s
Width : 1 920 pixels
Height : 800 pixels
Display aspect ratio : 2.40:1
Frame rate mode : Constant
Frame rate : 23.976 (24000/1001) FPS
Color space : YUV
Chroma subsampling : 4:2:0
Bit depth : 8 bits
Scan type : Progressive
Bits/(Pixel*Frame) : 0.292
Stream size : 10.2 GiB (93%)
Language : English
Default : Yes
Forced : No
Color range : Limited
Color primaries : BT.709
Transfer characteristics : BT.709
Matrix coefficients : BT.709

Audio #1
ID : 2
Format : AC-3
Format/Info : Audio Coding 3
Commercial name : Dolby Digital
Codec ID : A_AC3
Duration : 2 h 15 min
Bit rate mode : Constant
Bit rate : 384 kb/s
Channel(s) : 6 channels
Channel layout : L R C LFE Ls Rs
Sampling rate : 48.0 kHz
Frame rate : 31.250 FPS (1536 SPF)
Bit depth : 16 bits
Compression mode : Lossy
Stream size : 373 MiB (3%)
Title : iTunes
Language : Russian
Service kind : Complete Main
Default : Yes
Forced : Yes

Audio #2
ID : 3
Format : AC-3
Format/Info : Audio Coding 3
Commercial name : Dolby Digital
Codec ID : A_AC3
Duration : 2 h 15 min
Bit rate mode : Constant
Bit rate : 384 kb/s
Channel(s) : 2 channels
Channel layout : L R
Sampling rate : 48.0 kHz
Frame rate : 31.250 FPS (1536 SPF)
Bit depth : 16 bits
Compression mode : Lossy
Delay relative to video : 68 ms
Stream size : 373 MiB (3%)
Title : Original
Language : English
Service kind : Complete Main
Default : No
Forced : No

Text
ID : 4
Format : UTF-8
Codec ID : S_TEXT/UTF8
Codec ID/Info : UTF-8 Plain Text
Duration : 2 h 1 min
Bit rate : 61 b/s
Count of elements : 1947
Stream size : 54.9 KiB (0%)
Language : English
Default : No
Forced : No

Menu
00:00:00.000 : en:1
00:04:56.336 : en:2
00:13:41.778 : en:3
00:19:19.740 : en:4
00:26:44.267 : en:5
00:35:39.801 : en:6
00:40:11.531 : en:7
00:46:20.315 : en:8
00:51:32.501 : en:9
00:57:50.086 : en:10
01:01:51.535 : en:11
01:08:43.445 : en:12
01:14:21.116 : en:13
01:19:46.357 : en:14
01:24:57.542 : en:15
01:32:56.478 : en:16
01:38:47.203 : en:17
01:46:31.249 : en:18
01:53:27.872 : en:19
02:01:13.087 : en:20



Скрыт Profile PM
Показать сообщения:    
Ответить на тему

Текущее время: 22-Ноя 07:38

Часовой пояс: GMT + 3



Вы не можете начинать темы
Вы не можете отвечать на сообщения
Вы не можете редактировать свои сообщения
Вы не можете удалять свои сообщения
Вы не можете голосовать в опросах
Вы не можете прикреплять файлы к сообщениям
Вы не можете скачивать файлы
Рейтинг торрент трекеров - UpTracker.ru Анализ веб сайта Яндекс.Метрика
службы мониторинга серверов