Loading...
Error

Гарет Джонс | Mr. Jones (Агнешка Холланд) [2019 г., триллер, драма, биография, WEBRip 1080p] [UKR]

Ответить на тему
 
Автор Сообщение

Theseus

Стаж: 11 лет

Сообщений: 4756

Режим только чтение: НЕТ

post 11-Янв-2020 22:24

Quote

Гарет Джонс | Mr. Jones

Год выхода: 2019
Страна: Польша, Великобритания, Украина
Жанр: триллер, драма, биография
Продолжительность: 01:59:00
Перевод Украинский дубляж
Субтитры: украинские (вшитые/форс.)
Режиссер: Агнешка Холланд
В ролях: Джеймс Нортон, Ванесса Кирби, Питер Сарсгаард, Джозеф Моул, Кеннет Крэнэм, Селин Джонс, Кшиштоф Печиньский, Фенелла Вулгар, Мартин Бишоп, Джон Эдмондсон
О фильме: В 1930-е годы в СССР приезжает молодой журналист из Уэльса Гарет Джонс, который мечтает взять интервью у Сталина. Став свидетелем жестоких репрессий и народных бедствий, Гарет с угрозой для жизни пишет статью о тёмной стороне советской утопии. Пока спецслужбы и сторонники Сталина ищут способ, как заставить его замолчать, начинающий писатель Джордж Оруэлл под впечатлением от его истории задумывает повесть «Скотный двор».

Качество: WEBRip 1080p
Формат: MKV
Видео кодек: x.264
Аудио кодек: AC3
Видео: AVC, 1920x1080 (16:9), 24.000 fps, 4 381 kb/s
Аудио: AC3, 48.0 kHz, 6 ch, 384 kb/s | UKR (DUB)
Рекламы нет | Сэмпл

Код:

General
Unique ID                                : 238880403786046415792270171489559996062 (0xB3B6B1391FA0772E8541AFD19069669E)
Complete name                            : Mr.Jones.2019.WEBRip.1080p.UKR.mkv
Format                                   : Matroska
Format version                           : Version 4
File size                                : 3.96 GiB
Duration                                 : 1 h 59 min
Overall bit rate mode                    : Variable
Overall bit rate                         : 4 767 kb/s
Encoded date                             : UTC 2020-01-05 23:30:58
Writing application                      : mkvmerge v8.3.0 ('Over the Horizon') 64bit
Writing library                          : libebml v1.3.1 + libmatroska v1.4.2

Video
ID                                       : 1
Format                                   : AVC
Format/Info                              : Advanced Video Codec
Format profile                           : Main@L4
Format settings                          : CABAC / 1 Ref Frames
Format settings, CABAC                   : Yes
Format settings, ReFrames                : 1 frame
Codec ID                                 : V_MPEG4/ISO/AVC
Duration                                 : 1 h 59 min
Bit rate mode                            : Variable
Bit rate                                 : 4 381 kb/s
Maximum bit rate                         : 13.5 Mb/s
Width                                    : 1 920 pixels
Height                                   : 1 080 pixels
Display aspect ratio                     : 16:9
Frame rate mode                          : Constant
Frame rate                               : 24.000 FPS
Color space                              : YUV
Chroma subsampling                       : 4:2:0
Bit depth                                : 8 bits
Scan type                                : Progressive
Bits/(Pixel*Frame)                       : 0.088
Stream size                              : 3.64 GiB (92%)
Default                                  : Yes
Forced                                   : No

Audio
ID                                       : 2
Format                                   : AC-3
Format/Info                              : Audio Coding 3
Commercial name                          : Dolby Digital
Codec ID                                 : A_AC3
Duration                                 : 1 h 59 min
Bit rate mode                            : Constant
Bit rate                                 : 384 kb/s
Channel(s)                               : 6 channels
Channel layout                           : L R C LFE Ls Rs
Sampling rate                            : 48.0 kHz
Frame rate                               : 31.250 FPS (1536 SPF)
Bit depth                                : 16 bits
Compression mode                         : Lossy
Stream size                              : 327 MiB (8%)
Default                                  : Yes
Forced                                   : No


Скрыт Profile PM

post 07-Окт-2020 10:06 (спустя 8 месяцев)

Топик был перенесен из форума Зарубежные фильмы , мультфильмы и сериалы на языках ближнего зарубежья и СНГ в форум Поглощённые раздачи

Theseus
 
Показать сообщения:    
Ответить на тему

Текущее время: 29-Ноя 09:59

Часовой пояс: GMT + 3



Вы не можете начинать темы
Вы не можете отвечать на сообщения
Вы не можете редактировать свои сообщения
Вы не можете удалять свои сообщения
Вы не можете голосовать в опросах
Вы не можете прикреплять файлы к сообщениям
Вы не можете скачивать файлы
Рейтинг торрент трекеров - UpTracker.ru Яндекс.Метрика
службы мониторинга серверов