Loading...
Error

Фокстер и Макс (Анатолий Матешко) [2019 г.,фэнтези, приключения, семейный, WEBRip 1080p] [UKR]

Ответить на тему
 
Автор Сообщение

Theseus

Стаж: 10 лет

Сообщений: 5059

Режим только чтение: НЕТ

post 11-Янв-2020 22:32

Quote

Фокстер и Макс

Год выхода: 2019
Страна: Украина
Жанр: фэнтези, приключения, семейный
Продолжительность: 01:28:31
Перевод; Украинский язык
Субтитры: Отсутствуют
Режиссер: Анатолий Матешко
В ролях: Томаш Освецинский, Максим Самчик, Дарья Полунина, Владислав Мамчур, Роман Халаимов, Богдан Козий, Максим Родионов, Виталия Турчин, Анастасия Походенко
О фильме: По сюжету, мальчик Макс использовал нано-краски и его мечта сбылась: нарисованное им граффити ожило и превратилось в собаку-супергероя Фокстера.

Качество: WEBRip 1080p
Формат: MKV
Видео кодек: x.264
Аудио кодек: AC3
Видео: AVC, 1920x1080 (16:9), 24.000 fps, 4 339 kb/s
Аудио: AC-3, 48.0 kHz, 2 ch, 192 kb/s | [UKR / Line]
Рекламы нет | Сэмпл

Код:

General
Unique ID : 212822212476425142671957968944827765447 (0xA01C1132F6F3F55AA578616BEB2C92C7)
Complete name : Foxter.and.Max.(2019).WEBRip.1080p.UKR.mkv
Format : Matroska
Format version : Version 4
File size : 2.80 GiB
Duration : 1 h 28 min
Overall bit rate mode : Variable
Overall bit rate : 4 533 kb/s
Encoded date : UTC 2020-01-08 12:08:45
Writing application : mkvmerge v8.3.0 ('Over the Horizon') 64bit
Writing library : libebml v1.3.1 + libmatroska v1.4.2

Video
ID : 1
Format : AVC
Format/Info : Advanced Video Codec
Format profile : Main@L4
Format settings : CABAC / 1 Ref Frames
Format settings, CABAC : Yes
Format settings, ReFrames : 1 frame
Codec ID : V_MPEG4/ISO/AVC
Duration : 1 h 28 min
Bit rate mode : Variable
Bit rate : 4 339 kb/s
Maximum bit rate : 13.5 Mb/s
Width : 1 920 pixels
Height : 1 080 pixels
Display aspect ratio : 16:9
Frame rate mode : Constant
Frame rate : 24.000 FPS
Color space : YUV
Chroma subsampling : 4:2:0
Bit depth : 8 bits
Scan type : Progressive
Bits/(Pixel*Frame) : 0.087
Stream size : 2.68 GiB (96%)
Default : Yes
Forced : No

Audio
ID : 2
Format : AC-3
Format/Info : Audio Coding 3
Commercial name : Dolby Digital
Codec ID : A_AC3
Duration : 1 h 28 min
Bit rate mode : Constant
Bit rate : 192 kb/s
Channel(s) : 2 channels
Channel layout : L R
Sampling rate : 48.0 kHz
Frame rate : 31.250 FPS (1536 SPF)
Bit depth : 16 bits
Compression mode : Lossy
Stream size : 122 MiB (4%)
Default : Yes
Forced : No


Скрыт Profile PM
Показать сообщения:    
Ответить на тему

Текущее время: 24-Янв 00:59

Часовой пояс: GMT + 3



Вы не можете начинать темы
Вы не можете отвечать на сообщения
Вы не можете редактировать свои сообщения
Вы не можете удалять свои сообщения
Вы не можете голосовать в опросах
Вы не можете прикреплять файлы к сообщениям
Вы не можете скачивать файлы
Рейтинг торрент трекеров - UpTracker.ru Анализ веб сайта Яндекс.Метрика
службы мониторинга серверов