Loading...
Error

Аванпост (Егор Баранов) [2019 г., Триллер, фантастика, боевик, HDRip-AVC] | Лицензия

Ответить на тему
 
Автор Сообщение

Theseus

Стаж: 11 лет

Сообщений: 4740

Режим только чтение: НЕТ

post 27-Май-2020 15:01

Quote

Аванпост

Год выхода: 2019
Страна: Россия
Жанр: Триллер, фантастика, боевик
Продолжительность: 02:07:29
Перевод: Не требуется | Лицензия
Субтитры: Отсутствуют
Режиссер: Егор Баранов
В ролях: Лукерья Ильяшенко, Пётр Фёдоров, Светлана Иванова, Алексей Чадов, Ксения Кутепова, Константин Лавроненко, Филипп Авдеев, Артем Маркарьян, Сергей Годин, Артем Ткаченко
О фильме: В недалеком будущем что-то произошло. Связь с большей частью населенных пунктов Земли оборвалась. Космонавты передали с орбиты, что видят сверху небольшое пятно в Восточной Европе, по своим очертаниям напоминающее круг. То, что военные находят за границей этого круга, шокирует. В магазинах, в автомобилях, на дорогах, в зданиях больниц и вокзалов, повсюду — следы столкновений. Кто или что уничтожает все живое? И как долго продержится последний аванпост человечества?

Качество: HDRip-AVC
Формат: MKV
Видео кодек: x.264
Аудио кодек: AC3
Видео: 1024x428 (2,40:1), 23,976 fps, MPEG-4 AVC, 1996 Kbps
Аудио: AC-3, 48.0 kHz, 6 ch, 448 kb/s

Код:

Общее
Уникальный идентификатор : 271008703952344625468928970138424093883 (0xCBE260B85CA68F3E78857042A326ACBB)
Полное имя : Avanpost.2019.Lic.HDRip.2.18Gb.x264.mkv
Формат : Matroska
Версия формата : Version 4
Размер файла : 2,18 Гбайт
Продолжительность : 2 ч. 7 м.
Общий поток : 2445 Кбит/сек
Название фильма : Avanpost.2019.O.BDRip
Дата кодирования : UTC 2020-05-24 18:36:43
Программа кодирования : mkvmerge v46.0.0 ('No Deeper Escape') 64-bit
Библиотека кодирования : libebml v1.3.10 + libmatroska v1.5.2
Обложка : Yes
Attachments : cover.jpg

Видео
Идентификатор : 1
Формат : AVC
Формат/Информация : Advanced Video Codec
Профиль формата : High@L4.1
Настройки формата : CABAC / 9 Ref Frames
Параметр CABAC формата : Да
Параметр RefFrames формата : 9 кадров
Идентификатор кодека : V_MPEG4/ISO/AVC
Продолжительность : 2 ч. 7 м.
Битрейт : 1996 Кбит/сек
Ширина : 1024 пикселя
Высота : 428 пикселей
Соотношение сторон : 2,40:1
Режим частоты кадров : Постоянный
Частота кадров : 23,976 кадра/сек
Цветовое пространство : YUV
Субдискретизация насыщенности : 4:2:0
Битовая глубина : 8 бит
Тип развёртки : Прогрессивная
Бит/(Пиксели*Кадры) : 0.190
Размер потока : 1,78 Гбайт (82%)
Заголовок : #stillet
Библиотека кодирования : x264 core 152 r2851bm ba24899
Настройки программы : cabac=1 / ref=9 / deblock=1:-2:-2 / analyse=0x3:0x113 / me=umh / subme=11 / psy=1 / psy_rd=1.00:0.15 / mixed_ref=1 / me_range=32 / chroma_me=1 / trellis=2 / 8x8dct=1 / cqm=0 / deadzone=21,11 / fast_pskip=0 / chroma_qp_offset=-3 / threads=8 / lookahead_threads=3 / sliced_threads=0 / nr=0 / decimate=0 / interlaced=0 / bluray_compat=0 / constrained_intra=0 / bframes=10 / b_pyramid=2 / b_adapt=2 / b_bias=0 / direct=3 / weightb=1 / open_gop=0 / weightp=2 / keyint=240 / keyint_min=23 / scenecut=40 / intra_refresh=0 / rc=2pass / mbtree=0 / bitrate=1996 / ratetol=1.0 / qcomp=0.60 / qpmin=0 / qpmax=69 / qpstep=4 / cplxblur=20.0 / qblur=0.5 / ip_ratio=1.40 / pb_ratio=1.30 / aq=1:1.00
Язык : English
Default : Да
Forced : Нет

Аудио
Идентификатор : 2
Формат : AC-3
Формат/Информация : Audio Coding 3
Коммерческое название : Dolby Digital
Идентификатор кодека : A_AC3
Продолжительность : 2 ч. 7 м.
Вид битрейта : Постоянный
Битрейт : 448 Кбит/сек
Каналы : 6 каналов
ChannelLayout : L R C LFE Ls Rs
Частота : 48,0 КГц
Частота кадров : 31,250 кадров/сек (1536 SPF)
Метод сжатия : С потерями
Размер потока : 409 Мбайт (18%)
Заголовок : Лицензия
Язык : Russian
Default : Да
Forced : Да

Меню
00:00:00.000 : en:Chapter 01
00:09:30.278 : en:Chapter 02
00:19:34.423 : en:Chapter 03
00:29:52.666 : en:Chapter 04
00:40:16.581 : en:Chapter 05
00:50:11.342 : en:Chapter 06
01:01:00.031 : en:Chapter 07
01:10:54.876 : en:Chapter 08
01:22:56.471 : en:Chapter 09
01:34:43.511 : en:Chapter 10
01:46:17.329 : en:Chapter 11
02:04:02.727 : en:Chapter 12



Скрыт Profile PM
Показать сообщения:    
Ответить на тему

Текущее время: 29-Сен 00:35

Часовой пояс: GMT + 3



Вы не можете начинать темы
Вы не можете отвечать на сообщения
Вы не можете редактировать свои сообщения
Вы не можете удалять свои сообщения
Вы не можете голосовать в опросах
Вы не можете прикреплять файлы к сообщениям
Вы не можете скачивать файлы
Рейтинг торрент трекеров - UpTracker.ru Яндекс.Метрика
службы мониторинга серверов