Loading...
Error

2067: Петля времени / 2067 (Сет Ларни) [2020 г., фантастика, WEB-DLRip] MVO (@MUZOBOZ@)

Ответить на тему
 
Автор Сообщение

Theseus

Стаж: 11 лет

Сообщений: 4756

Режим только чтение: НЕТ

post 06-Окт-2020 10:26

Quote

2067: Петля времени / 2067

Год выхода: 2020
Страна: Австралия
Жанр: фантастика
Продолжительность: 01:54:27
Перевод: Любительский многоголосый | @MUZOBOZ@
Субтитры: Отсутствуют
Режиссер: Сет Ларни
В ролях: Коди Смит-Макфи, Райан Квантен, Лианна Уолсмен, Дебора Мэйлман, Сана’а Шейк, Финн Литтл, Дэмиэн Уолш-Хоулинг, Энди МакФи, Аарон Гленнэйн, Мэтт Тестро
О фильме: 2067 год. Добро пожаловать в мир, где царит хаос: исчезли леса и растения, вымерли дикие животные, а люди оказались на грани вымирания из-за отсутствия кислорода.
Неожиданное послание из будущего «Отправьте Итана Уайта» — последняя надежда человечества. Кто такой Итан Уайт? Сможет ли он спасти мир?

Качество: WEB-DLRip
Формат: AVI
Видео кодек: XviD
Аудио кодек: AC3
Видео: MPEG4, XviD, 720x304 (2,40:1), 23.976 fps, 1 622 kb/s
Аудио: AC-3, 48.0 kHz, 2 ch, 192 kb/s
Рекламы нет
Сэмпл

Код:

Общее
Полное имя                               : 2067.2020.RU.WEB-DLRip-MediaBit.avi
Формат                                   : AVI
Формат/Информация                        : Audio Video Interleave
Профиль формата                          : OpenDML
Размер файла                             : 1,46 Гбайт
Продолжительность                        : 1 ч. 54 м.
Общий поток                              : 1 825 Кбит/сек
Название фильма                          : 2067 (2020)
Программа кодирования                    : Lavf58.20.100

Видео
Идентификатор                            : 0
Формат                                   : MPEG-4 Visual
Профиль формата                          : Advanced Simple@L5
Настройки формата                        : BVOP1 / Custom Matrix
Параметр BVOP формата                    : 1
Параметр QPel формата                    : Нет
Параметр GMC формата                     : Без точки перехода
Параметр матрицы формата                 : Выборочная
Идентификатор кодека                     : XVID
Идентификатор кодека/Подсказка           : XviD
Продолжительность                        : 1 ч. 54 м.
Битрейт                                  : 1 622 Кбит/сек
Ширина                                   : 720 пикселей
Высота                                   : 304 пикселя
Соотношение сторон                       : 2,40:1
Частота кадров                           : 23,976 (24000/1001) кадра/сек
Цветовое пространство                    : YUV
Субдискретизация насыщенности            : 4:2:0
Битовая глубина                          : 8 бит
Тип развёртки                            : Прогрессивная
Метод сжатия                             : С потерями
Бит/(Пиксели*Кадры)                      : 0.309
Размер потока                            : 1,30 Гбайт (89%)
Заголовок                                : MediaBit
Библиотека кодирования                   : XviD 67

Аудио
Идентификатор                            : 1
Формат                                   : AC-3
Формат/Информация                        : Audio Coding 3
Коммерческое название                    : Dolby Digital
Идентификатор кодека                     : 2000
Продолжительность                        : 1 ч. 54 м.
Вид битрейта                             : Постоянный
Битрейт                                  : 192 Кбит/сек
Каналы                                   : 2 канала
Channel layout                           : L R
Частота                                  : 48,0 КГц
Частота кадров                           : 31,250 кадров/сек (1536 SPF)
Битовая глубина                          : 16 бит
Метод сжатия                             : С потерями
Размер потока                            : 157 Мбайт (11%)
Выравнивание                             : Соединение по промежуткам
Продолжительность промежутка             : 32  мс. (0,77 видеокадр)
Заголовок                                : MVO [@MUZOBOZ@] MediaBit
Service kind                             : Complete Main



Скрыт Profile PM
Показать сообщения:    
Ответить на тему

Текущее время: 29-Ноя 07:44

Часовой пояс: GMT + 3



Вы не можете начинать темы
Вы не можете отвечать на сообщения
Вы не можете редактировать свои сообщения
Вы не можете удалять свои сообщения
Вы не можете голосовать в опросах
Вы не можете прикреплять файлы к сообщениям
Вы не можете скачивать файлы
Рейтинг торрент трекеров - UpTracker.ru Яндекс.Метрика
службы мониторинга серверов