Loading...
Error

Бокс. Александр Усик - Дерек Чисора (31.10.2020, Беларусь 5 HD) [2020, Бокс, IPTV 1080p]

Ответить на тему
 
Автор Сообщение

Theseus

Стаж: 11 лет

Сообщений: 4756

Режим только чтение: НЕТ

post 03-Ноя-2020 14:51

Quote

Бокс. Александр Усик - Дерек Чисора

Год: 2020
Вид спорта: Бокс
Продолжительность: 01:22:41
Комментарий: П. Баранов
Язык комментариев: Русский
Канал: Беларусь 5 HD
Страна: Великобритания

Описание: Александр Усик — Дерек Чисора — рейтинговый профессиональный боксерский 12-раундовый поединок в тяжёлом весе за статус официального претендента на титул чемпиона мира по версии WBO. Поединок состоялся 31 октября 2020 года на Уэмбли Арене в Лондоне

Качество видео: IPTV 1080p
Формат: MKV
Видео кодек: x.264
Аудио кодек: AAC
Видео: AVC, 1920x1080 (16:9), 25.000 fps, 3 374 kb/s
Аудио: AAC, 48.0 kHz, 2 ch, 161 kb/s

Александр Усик и Дерек Чисора

Код:

Общее
Уникальный идентификатор                 : 238774746762931044477543309386379340307 (0xB3A257EE01535D018F3DEAF8DE1AAA13)
Полное имя                               : Dereck Chisora vs Oleksandr Usyk (31-10-2020) [RUS] 1080p.mkv
Формат                                   : Matroska
Версия формата                           : Version 4
Размер файла                             : 2,04 Гбайт
Продолжительность                        : 1 ч. 22 м.
Режим общего битрейта                    : Переменный
Общий поток                              : 3538 Кбит/сек
Дата кодирования                         : UTC 2020-11-03 11:12:07
Программа кодирования                    : mkvmerge v8.3.0 ('Over the Horizon') 64bit
Библиотека кодирования                   : libebml v1.3.1 + libmatroska v1.4.2

Видео
Идентификатор                            : 1
Формат                                   : AVC
Формат/Информация                        : Advanced Video Codec
Профиль формата                          : High@L4
Настройки формата                        : CABAC / 1 Ref Frames
Параметр CABAC формата                   : Да
Параметр RefFrames формата               : 1 кадр
Параметр GOP формата                     : M=1, N=50
Идентификатор кодека                     : V_MPEG4/ISO/AVC
Продолжительность                        : 1 ч. 22 м.
Вид битрейта                             : Переменный
Битрейт                                  : 3374 Кбит/сек
Максимальный битрейт                     : 3500 Кбит/сек
Ширина                                   : 1920 пикселей
Высота                                   : 1080 пикселей
Соотношение сторон                       : 16:9
Режим частоты кадров                     : Постоянный
Частота кадров                           : 25,000 кадров/сек
Цветовое пространство                    : YUV
Субдискретизация насыщенности            : 4:2:0
Битовая глубина                          : 8 бит
Тип развёртки                            : Прогрессивная
Бит/(Пиксели*Кадры)                      : 0.065
Размер потока                            : 1,95 Гбайт (95%)
Default                                  : Да
Forced                                   : Нет

Аудио
Идентификатор                            : 2
Формат                                   : AAC LC
Формат/Информация                        : Advanced Audio Codec Low Complexity
Идентификатор кодека                     : A_AAC-2
Продолжительность                        : 1 ч. 22 м.
Битрейт                                  : 161 Кбит/сек
Каналы                                   : 2 канала
Channel layout                           : L R
Частота                                  : 48,0 КГц
Частота кадров                           : 46,875 кадров/сек (1024 SPF)
Метод сжатия                             : С потерями
Задержка видео                           : 12 мс.
Размер потока                            : 95,4 Мбайт (5%)
Язык                                     : Russian
Default                                  : Да
Forced                                   : Нет



Скрыт Profile PM
Показать сообщения:    
Ответить на тему

Текущее время: 29-Ноя 08:02

Часовой пояс: GMT + 3



Вы не можете начинать темы
Вы не можете отвечать на сообщения
Вы не можете редактировать свои сообщения
Вы не можете удалять свои сообщения
Вы не можете голосовать в опросах
Вы не можете прикреплять файлы к сообщениям
Вы не можете скачивать файлы
Рейтинг торрент трекеров - UpTracker.ru Яндекс.Метрика
службы мониторинга серверов