Loading...
Error

Охотник на монстров / Monster Hunter (Пол У. С. Андерсон) [2020 г., фэнтези, боевик, приключения, BDRip 720p] DUB (Чистый звук) | AVO (BadBajo) | AVO (Дольский) | MVO (HDRezka studio)

Ответить на тему
 
Автор Сообщение

Theseus

Стаж: 11 лет

Сообщений: 4779

Режим только чтение: НЕТ

post 21-Фев-2021 13:54

Quote

Охотник на монстров / Monster Hunter

Год выхода: 2020
Страна: США, Китай, Германия, Япония
Жанр: фэнтези, боевик, приключения
Продолжительность: 01:43:08
Перевод 1: Профессиональный дублированный | Чистый звук
Перевод 2: Авторский (одноголосый, закадровый) | BadBajo
Перевод 3: Авторский (одноголосый, закадровый) | Дольский
Перевод 4: Профессиональный (многоголосый) | HDRezka studio
Субтитры: Русские (2 x Forced, full), украинские (Forced), английские (full, SDH)
Режиссер: Пол У. С. Андерсон
В ролях: Милла Йовович, Тони Джа, Джош Хелман, Ти-Ай, Джин О-Юн, Миган Гуд, Николас Расенти, Рон Перлман, Диего Бонета, Хирона Ямадзаки
О фильме: Параллельно нашему миру существует иной: мир, где правят крайне опасные и наделенные невероятной силой монстры, яростно оберегающие свои владения от чужаков. Именно сюда через пространственный портал попадают лейтенант Артемис и ее отряд элитных бойцов. И теперь им предстоит проверить себя на прочность перед лицом невиданной ранее угрозы. В попытке выжить и найти дорогу домой, Артемис объединяет силы с таинственным Охотником, который научился выживать в этих враждебных землях. Вместе героям предстоит вступить в беспощадную схватку с монстрами, не знающими страха и жалости.

Качество: BDRip 720p
Формат: MKV
Видео кодек: x.264
Аудио кодек: AC3
Видео: AVC, 1280x536 (2.40:1), 23.976 fps, 6 136 kb/s
Аудио 1: AC3, 48.0 kHz, 2 ch, 256 kb/s | RUS [DUB, Чистый звук]
Аудио 2: AC3, 48.0 kHz, 6 ch, 640 kb/s | RUS [AVO, BadBajo]
Аудио 3: AC3, 48.0 kHz, 6 ch, 640 kb/s | RUS [AVO, Дольский]
Аудио 4: AC3, 48.0 kHz, 6 ch, 448 kb/s | RUS [MVO, HDRezka studio]
Аудио 5: AC3, 48.0 kHz, 6 ch, 384 kb/s | UKR [MVO, HDRezka studio]
Аудио 6: AC3, 48.0 kHz, 6 ch, 640 kb/s | ENG [Оригинал]
Рекламы нет

Код:

General
Unique ID                                : 215330866955762548209687802422011873412 (0xA1FF376A0F5A2B948B63D72C08CFC884)
Complete name                            : Monster.Hunter.2020.BDRip.720p.ExKinoRay.mkv
Format                                   : Matroska
Format version                           : Version 4
File size                                : 6.59 GiB
Duration                                 : 1 h 43 min
Overall bit rate                         : 9 147 kb/s
Movie name                               : Monster Hunter 2020 from ExKinoRay
Encoded date                             : UTC 2021-02-20 05:46:05
Writing application                      : mkvmerge v7.3.0 ('Nouages') 64bit built on Oct 22 2014 18:53:34
Writing library                          : libebml v1.3.0 + libmatroska v1.4.1

Video
ID                                       : 1
Format                                   : AVC
Format/Info                              : Advanced Video Codec
Format profile                           : High@L4.1
Format settings                          : CABAC / 12 Ref Frames
Format settings, CABAC                   : Yes
Format settings, ReFrames                : 12 frames
Codec ID                                 : V_MPEG4/ISO/AVC
Duration                                 : 1 h 43 min
Bit rate                                 : 6 136 kb/s
Width                                    : 1 280 pixels
Height                                   : 536 pixels
Display aspect ratio                     : 2.40:1
Frame rate mode                          : Constant
Frame rate                               : 23.976 (24000/1001) FPS
Color space                              : YUV
Chroma subsampling                       : 4:2:0
Bit depth                                : 8 bits
Scan type                                : Progressive
Bits/(Pixel*Frame)                       : 0.373
Stream size                              : 4.42 GiB (67%)
Title                                    : iFT
Writing library                          : x264 core 161 r3048+58M ~ Encoded by Mocunaman in Portugal
Encoding settings                        : cabac=1 / ref=12 / deblock=1:-3:-3 / analyse=0x3:0x113 / me=umh / subme=11 / psy=1 / fade_compensate=0.00 / psy_rd=1.00:0.00 / mixed_ref=1 / me_range=32 / chroma_me=1 / trellis=2 / 8x8dct=1 / cqm=0 / deadzone=21,11 / fast_pskip=0 / chroma_qp_offset=-2 / threads=17 / lookahead_threads=2 / sliced_threads=0 / nr=0 / decimate=0 / interlaced=0 / bluray_compat=0 / constrained_intra=0 / fgo=0 / bframes=8 / b_pyramid=2 / b_adapt=2 / b_bias=0 / direct=3 / weightb=1 / open_gop=0 / weightp=2 / keyint=250 / keyint_min=23 / scenecut=40 / intra_refresh=0 / rc_lookahead=60 / rc=crf / mbtree=0 / crf=16.7000 / qcomp=0.65 / qpmin=0:0:0 / qpmax=69:69:69 / qpstep=4 / vbv_maxrate=62500 / vbv_bufsize=78125 / crf_max=0.0 / nal_hrd=none / filler=0 / ip_ratio=1.30 / pb_ratio=1.20 / aq=3:0.80 / aq-sensitivity=10.00 / aq-factor=1.00:1.00:1.00 / aq2=0 / aq3=0 / zones=2400,6264,crf=15.7/12264,14326,crf=16.2/30406,39144,crf=15.7/39160,42549,crf=12.7/56185,59065,crf=15.7/60337,63169,crf=16.2/63385,64033,crf=15.7/71251,73123,crf=16.2/73171,76915,crf=15.7/90562,92563,crf=15.7/99273,110457,crf=15.7/112307,119361,crf=15.7/132898,134205,crf=16.2
Language                                 : English
Default                                  : Yes
Forced                                   : No
Color range                              : Limited
Color primaries                          : BT.709
Transfer characteristics                 : BT.709
Matrix coefficients                      : BT.709

Audio #1
ID                                       : 2
Format                                   : AC-3
Format/Info                              : Audio Coding 3
Commercial name                          : Dolby Digital
Codec ID                                 : A_AC3
Duration                                 : 1 h 43 min
Bit rate mode                            : Constant
Bit rate                                 : 256 kb/s
Channel(s)                               : 2 channels
Channel layout                           : L R
Sampling rate                            : 48.0 kHz
Frame rate                               : 31.250 FPS (1536 SPF)
Bit depth                                : 16 bits
Compression mode                         : Lossy
Stream size                              : 189 MiB (3%)
Title                                    : DUB (Line)
Language                                 : Russian
Service kind                             : Complete Main
Default                                  : Yes
Forced                                   : No

Audio #2
ID                                       : 3
Format                                   : AC-3
Format/Info                              : Audio Coding 3
Commercial name                          : Dolby Digital
Codec ID                                 : A_AC3
Duration                                 : 1 h 43 min
Bit rate mode                            : Constant
Bit rate                                 : 640 kb/s
Channel(s)                               : 6 channels
Channel layout                           : L R C LFE Ls Rs
Sampling rate                            : 48.0 kHz
Frame rate                               : 31.250 FPS (1536 SPF)
Bit depth                                : 16 bits
Compression mode                         : Lossy
Stream size                              : 472 MiB (7%)
Title                                    : AVO (BadBajo)
Language                                 : Russian
Service kind                             : Complete Main
Default                                  : No
Forced                                   : No

Audio #3
ID                                       : 4
Format                                   : AC-3
Format/Info                              : Audio Coding 3
Commercial name                          : Dolby Digital
Codec ID                                 : A_AC3
Duration                                 : 1 h 43 min
Bit rate mode                            : Constant
Bit rate                                 : 640 kb/s
Channel(s)                               : 6 channels
Channel layout                           : L R C LFE Ls Rs
Sampling rate                            : 48.0 kHz
Frame rate                               : 31.250 FPS (1536 SPF)
Bit depth                                : 16 bits
Compression mode                         : Lossy
Stream size                              : 472 MiB (7%)
Title                                    : AVO (Дольский)
Language                                 : Russian
Service kind                             : Complete Main
Default                                  : No
Forced                                   : No

Audio #4
ID                                       : 5
Format                                   : AC-3
Format/Info                              : Audio Coding 3
Commercial name                          : Dolby Digital
Codec ID                                 : A_AC3
Duration                                 : 1 h 43 min
Bit rate mode                            : Constant
Bit rate                                 : 448 kb/s
Channel(s)                               : 6 channels
Channel layout                           : L R C LFE Ls Rs
Sampling rate                            : 48.0 kHz
Frame rate                               : 31.250 FPS (1536 SPF)
Bit depth                                : 16 bits
Compression mode                         : Lossy
Stream size                              : 330 MiB (5%)
Title                                    : MVO (HDRezka Studio)
Language                                 : Russian
Service kind                             : Complete Main
Default                                  : No
Forced                                   : No

Audio #5
ID                                       : 6
Format                                   : AC-3
Format/Info                              : Audio Coding 3
Commercial name                          : Dolby Digital
Codec ID                                 : A_AC3
Duration                                 : 1 h 43 min
Bit rate mode                            : Constant
Bit rate                                 : 384 kb/s
Channel(s)                               : 6 channels
Channel layout                           : L R C LFE Ls Rs
Sampling rate                            : 48.0 kHz
Frame rate                               : 31.250 FPS (1536 SPF)
Bit depth                                : 16 bits
Compression mode                         : Lossy
Stream size                              : 283 MiB (4%)
Title                                    : MVO (HDRezka Studio)
Language                                 : Ukrainian
Service kind                             : Complete Main
Default                                  : No
Forced                                   : No

Audio #6
ID                                       : 7
Format                                   : AC-3
Format/Info                              : Audio Coding 3
Commercial name                          : Dolby Digital
Codec ID                                 : A_AC3
Duration                                 : 1 h 43 min
Bit rate mode                            : Constant
Bit rate                                 : 640 kb/s
Channel(s)                               : 6 channels
Channel layout                           : L R C LFE Ls Rs
Sampling rate                            : 48.0 kHz
Frame rate                               : 31.250 FPS (1536 SPF)
Bit depth                                : 16 bits
Compression mode                         : Lossy
Stream size                              : 472 MiB (7%)
Language                                 : English
Service kind                             : Complete Main
Default                                  : No
Forced                                   : No

Text #1
ID                                       : 8
Format                                   : UTF-8
Codec ID                                 : S_TEXT/UTF8
Codec ID/Info                            : UTF-8 Plain Text
Duration                                 : 1 h 32 min
Bit rate                                 : 1 b/s
Count of elements                        : 26
Stream size                              : 1.27 KiB (0%)
Title                                    : Forced (Enigma)
Language                                 : Russian
Default                                  : Yes
Forced                                   : No

Text #2
ID                                       : 9
Format                                   : UTF-8
Codec ID                                 : S_TEXT/UTF8
Codec ID/Info                            : UTF-8 Plain Text
Duration                                 : 1 h 30 min
Bit rate                                 : 4 b/s
Count of elements                        : 59
Stream size                              : 3.12 KiB (0%)
Title                                    : Forced (HDRezka Studio)
Language                                 : Russian
Default                                  : No
Forced                                   : No

Text #3
ID                                       : 10
Format                                   : UTF-8
Codec ID                                 : S_TEXT/UTF8
Codec ID/Info                            : UTF-8 Plain Text
Duration                                 : 1 h 32 min
Bit rate                                 : 30 b/s
Count of elements                        : 521
Stream size                              : 20.9 KiB (0%)
Title                                    : Full (Enigma)
Language                                 : Russian
Default                                  : No
Forced                                   : No

Text #4
ID                                       : 11
Format                                   : UTF-8
Codec ID                                 : S_TEXT/UTF8
Codec ID/Info                            : UTF-8 Plain Text
Duration                                 : 1 h 31 min
Bit rate                                 : 1 b/s
Count of elements                        : 25
Stream size                              : 1.19 KiB (0%)
Title                                    : Forced
Language                                 : Ukrainian
Default                                  : No
Forced                                   : No

Text #5
ID                                       : 12
Format                                   : UTF-8
Codec ID                                 : S_TEXT/UTF8
Codec ID/Info                            : UTF-8 Plain Text
Duration                                 : 1 h 29 min
Bit rate                                 : 19 b/s
Count of elements                        : 515
Stream size                              : 12.6 KiB (0%)
Title                                    : Full
Language                                 : English
Default                                  : No
Forced                                   : No

Text #6
ID                                       : 13
Format                                   : UTF-8
Codec ID                                 : S_TEXT/UTF8
Codec ID/Info                            : UTF-8 Plain Text
Duration                                 : 1 h 42 min
Bit rate                                 : 25 b/s
Count of elements                        : 986
Stream size                              : 19.2 KiB (0%)
Title                                    : SDH
Language                                 : English
Default                                  : No
Forced                                   : No

Menu
00:00:00.000                             : en:Chapter 01
00:04:59.424                             : en:Chapter 02
00:10:28.211                             : en:Chapter 03
00:15:26.342                             : en:Chapter 04
00:21:12.938                             : en:Chapter 05
00:24:53.492                             : en:Chapter 06
00:31:53.328                             : en:Chapter 07
00:35:58.698                             : en:Chapter 08
00:41:10.301                             : en:Chapter 09
00:48:05.007                             : en:Chapter 10
00:54:10.080                             : en:Chapter 11
01:01:36.109                             : en:Chapter 12
01:06:18.516                             : en:Chapter 13
01:13:21.689                             : en:Chapter 14
01:23:01.727                             : en:Chapter 15
01:31:21.601                             : en:Chapter 16
01:35:39.734                             : en:Chapter 17



Скрыт Profile PM
Показать сообщения:    
Ответить на тему

Текущее время: 09-Мар 12:51

Часовой пояс: GMT + 3



Вы не можете начинать темы
Вы не можете отвечать на сообщения
Вы не можете редактировать свои сообщения
Вы не можете удалять свои сообщения
Вы не можете голосовать в опросах
Вы не можете прикреплять файлы к сообщениям
Вы не можете скачивать файлы
Рейтинг торрент трекеров - UpTracker.ru Яндекс.Метрика
службы мониторинга серверов